<?xml version="1.0" standalone="no"?>
<!DOCTYPE svg PUBLIC "-//W3C//DTD SVG 1.1//EN" "http://www.w3.org/Graphics/SVG/1.1/DTD/svg11.dtd" >
<svg xmlns="http://www.w3.org/2000/svg">
<metadata></metadata>
<defs>
<font id="symbolaregular" horiz-adv-x="2048" >
<font-face units-per-em="2048" ascent="1606" descent="-442" />
<missing-glyph horiz-adv-x="512" />
<glyph horiz-adv-x="0" />
<glyph unicode="&#xd;" horiz-adv-x="512" />
<glyph unicode=" "  horiz-adv-x="512" />
<glyph unicode="&#x09;" horiz-adv-x="512" />
<glyph unicode="&#xa0;" horiz-adv-x="512" />
<glyph unicode="!" horiz-adv-x="682" d="M232 109q0 44 32 76t77 32t77 -32t32 -76q0 -45 -32 -77t-77 -32t-77 32t-32 77zM233 1362v9q0 43 32 69t76 26t76 -26t32 -69v-9l-79 -932q-4 -47 -29 -47t-29 47z" />
<glyph unicode="&#x22;" horiz-adv-x="809" d="M108 783q0 13 79 247q77 227 94 271q16 38 66 38q81 0 81 -56q0 -11 -7 -23l-272 -472q-10 -17 -22 -17q-19 0 -19 12zM381 783q0 13 79 247q77 227 94 271q16 38 66 38q81 0 81 -56q0 -11 -7 -23l-271 -472q-10 -17 -23 -17q-19 0 -19 12z" />
<glyph unicode="#" horiz-adv-x="1024" d="M39 382q0 41 68 41h158l56 318h-214q-68 0 -68 41t68 41h228l66 374q12 68 53 68q33 0 33 -35q0 -11 -4 -33l-66 -374h318l66 374q12 68 53 68q33 0 33 -35q0 -11 -4 -33l-66 -374h100q68 0 68 -41t-68 -41h-114l-56 -318h170q68 0 68 -41t-68 -41h-185l-69 -394 q-12 -68 -53 -68q-33 0 -33 35q0 11 4 33l69 394h-318l-69 -394q-12 -68 -53 -68q-33 0 -33 35q0 11 4 33l69 394h-143q-68 0 -68 41zM347 423h318l56 318h-318z" />
<glyph unicode="$" horiz-adv-x="964" d="M108 344q0 97 89 97q38 0 63 -25t25 -63q0 -89 -88 -89q-14 0 -31 4q45 -214 285 -228v574q-161 41 -238 116q-105 105 -105 260q0 146 98.5 250.5t244.5 117.5v88h60v-86q152 -8 246 -98q97 -93 97 -242q0 -96 -88 -96q-38 0 -63.5 25.5t-25.5 63.5q0 88 89 88 q17 0 30 -4q-50 190 -285 201v-521q159 -39 239 -125q104 -112 104 -276q0 -152 -95 -265q-99 -117 -248 -130v-89h-60v86q-155 10 -249 110.5t-94 255.5zM206 1047q0 -103 74 -171q65 -61 171 -84v506q-101 -10 -171 -79q-74 -72 -74 -172zM511 40q105 14 175 93.5 t70 185.5q0 109 -69 186q-66 72 -176 95v-560z" />
<glyph unicode="%" horiz-adv-x="1662" d="M50 1119q0 459 281 459q149 0 223 -142q165 -149 331 -149q235 0 389 195q23 29 43 29q41 0 41 -41q0 -12 -17 -37l-1037 -1536q-21 -31 -41 -31q-41 0 -41 41q0 13 19 41l920 1364q-106 -70 -274 -70q-160 0 -297 99q22 -86 22 -222q0 -453 -282 -453q-280 0 -280 453z M169 1050q0 -345 161 -345q163 0 163 346q0 226 1 203q-5 132 -34 197q-47 44 -84 81q-22 7 -46 7q-108 0 -143 -128q-18 -67 -18 -216v-145zM1050 419q0 459 281 459t281 -459q0 -453 -282 -453q-280 0 -280 453zM1169 350q0 -345 161 -345q163 0 163 346v141 q0 150 -19 217q-35 130 -144 130q-108 0 -143 -128q-18 -67 -18 -216v-145z" />
<glyph unicode="&#x26;" horiz-adv-x="1593" d="M95 262q0 75 38 136q24 38 107 124q112 116 187 199q-84 214 -84 416q0 152 91 246q81 83 187 83q97 0 144 -97q35 -71 35 -167q0 -136 -250 -414q57 -150 194 -350q88 -129 146 -196q133 164 293 446q12 36 12 41q0 90 -146 90v64q81 -6 250 -6q88 0 199 6v-64 q-125 -1 -191 -54q-44 -36 -114 -155q-175 -298 -271 -409q154 -183 283 -183q81 0 147 54q78 65 82 176h52q-3 -130 -86.5 -211.5t-202.5 -81.5q-182 0 -361 156q-175 -156 -370 -156q-154 0 -262.5 87.5t-108.5 219.5zM265 328q0 -110 45 -196q59 -114 172 -114 q168 0 316 132q-78 78 -189 239q-95 139 -164 285q-98 -94 -131 -151q-49 -81 -49 -195zM472 1184q0 -165 61 -346q215 233 215 366q0 56 -15 110q-31 107 -108 107q-61 0 -103 -54q-50 -64 -50 -183z" />
<glyph unicode="'" horiz-adv-x="536" d="M108 783q0 13 79 247q77 227 94 271q16 38 66 38q81 0 81 -56q0 -11 -7 -23l-272 -472q-10 -17 -22 -17q-19 0 -19 12z" />
<glyph unicode="(" horiz-adv-x="682" d="M91 582q0 297 95 505q97 212 323 398q35 29 46 29q19 0 19 -18q0 -8 -24 -32q-300 -295 -300 -882t300 -882q24 -24 24 -32q0 -18 -19 -18q-11 0 -46 29q-226 186 -323 398q-95 208 -95 505z" />
<glyph unicode=")" horiz-adv-x="682" d="M108 -332q0 8 24 32q300 295 300 882t-300 882q-24 24 -24 32q0 18 19 18q11 0 46 -29q226 -186 323 -398q95 -208 95 -505t-95 -505q-97 -212 -323 -398q-35 -29 -46 -29q-19 0 -19 18z" />
<glyph unicode="*" horiz-adv-x="964" d="M114 973q0 31 27 43l287 132l-287 132q-27 13 -27 44q0 23 17 43t40 20q14 0 27 -9l257 -183l-29 319q0 49 56 49q57 0 57 -49v-5l-30 -314l258 183q12 9 26 9q24 0 40.5 -20t16.5 -43q0 -31 -26 -44l-287 -132l287 -132q26 -12 26 -43q0 -24 -16.5 -43.5t-40.5 -19.5 q-14 0 -26 9l-258 182l30 -319q0 -49 -57 -49q-56 0 -56 49v5l29 314l-257 -182q-13 -9 -27 -9q-23 0 -40 19.5t-17 43.5z" />
<glyph unicode="+" horiz-adv-x="1591" d="M170 582q0 41 39 41h546v548q0 37 41 37t41 -37v-548h547q37 0 37 -41t-37 -41h-547v-546q0 -39 -41 -39t-41 39v546h-546q-39 0 -39 41z" />
<glyph unicode="," horiz-adv-x="512" d="M136 109q0 44 32 76t77 32q71 0 106 -77q25 -57 25 -138q0 -152 -84 -287q-69 -110 -103 -110q-20 0 -20 22q0 8 14 23q148 157 148 352q0 14 -4 36q-33 -38 -82 -38q-45 0 -77 32t-32 77z" />
<glyph unicode="-" horiz-adv-x="768" d="M95 582q0 41 39 41h502q37 0 37 -41t-37 -41h-502q-39 0 -39 41z" />
<glyph unicode="." horiz-adv-x="512" d="M147 109q0 44 32 76t77 32t77 -32t32 -76q0 -45 -32 -77t-77 -32t-77 32t-32 77z" />
<glyph unicode="/" horiz-adv-x="569" d="M0 -311q0 6 2 13l488 1788q7 26 40 26q39 0 39 -41q0 -6 -2 -13l-488 -1788q-7 -26 -40 -26q-39 0 -39 41z" />
<glyph unicode="0" horiz-adv-x="1024" d="M73 666q0 315 76 475q117 247 363 247q238 0 355 -232q83 -165 83 -490q0 -309 -78 -469q-118 -242 -362 -242q-226 0 -344 209q-93 164 -93 502zM244 823q0 -41 1 -122v-121q0 -239 33 -360q59 -220 232 -220q172 0 233 212q34 120 34 352v260q0 216 -37 329 q-61 190 -230 190q-168 0 -229 -191q-37 -114 -37 -329z" />
<glyph unicode="1" horiz-adv-x="1024" d="M169 1191v64q250 0 379 133h10q29 0 35 -14q3 -6 3 -39v-1181q0 -33 8 -50q15 -33 117 -40q14 -1 135 0v-64q-71 6 -136 6h-404q-64 0 -135 -6v64q12 0 37.5 -1t38.5 -1q153 0 175 43q9 18 9 53v1087q-109 -54 -272 -54z" />
<glyph unicode="2" horiz-adv-x="1024" d="M96 0v18q0 33 24 60l400 445q218 243 218 461q0 139 -69 234q-76 106 -210 106q-97 0 -173 -59t-109 -153q7 2 17 2q121 0 121 -109q0 -46 -31 -78t-77 -32q-111 0 -111 116q0 157 116 267t274 110q185 0 310 -108q131 -114 131 -296q0 -118 -77 -228q-44 -63 -165 -181 l-428 -415h416q136 0 156 16.5t46 185.5h52l-57 -362h-774z" />
<glyph unicode="3" horiz-adv-x="1024" d="M79 281q0 53 32 87t85 34q50 0 83.5 -33.5t33.5 -83.5q0 -51 -34.5 -83t-84.5 -32q-10 0 -20 1q46 -77 139 -120q85 -39 181 -39q125 0 187 116q48 91 48 228q0 145 -51 234q-63 113 -197 113h-108q-33 0 -33 23q0 22 48 28q33 1 65 3q124 8 185 108q58 94 58 238 q0 102 -48 165q-53 70 -152 70q-194 0 -278 -130q129 2 129 -105q0 -46 -29.5 -76t-75.5 -30q-48 0 -77.5 29.5t-29.5 77.5q0 132 123 213q108 71 247 71q142 0 254 -71q130 -82 130 -216q0 -126 -87 -229q-81 -97 -206 -138q145 -29 243 -129q105 -107 105 -249 q0 -172 -137 -290q-131 -111 -306 -111q-158 0 -282 82q-140 93 -140 244z" />
<glyph unicode="4" horiz-adv-x="1024" d="M50 345v64l640 978q16 25 42 25q25 0 31 -17q2 -6 2 -38v-948h208v-64h-208v-196q0 -30 9 -48q19 -38 194 -37v-64q-83 6 -142 6h-285q-56 0 -139 -6v64q47 -1 64 -1q110 0 130 38q9 17 9 48v196h-555zM108 409h509v777z" />
<glyph unicode="5" horiz-adv-x="1024" d="M96 336q0 111 101 111q44 0 74.5 -29t30.5 -73t-30.5 -73.5t-74.5 -29.5q-18 0 -34 5q29 -101 115.5 -168t190.5 -67q145 0 224 136q49 85 49 286q0 178 -37 262q-59 134 -178 134q-89 0 -160 -43q-45 -27 -90 -80q-38 -43 -46 -43q-29 0 -29 41v648q0 34 20 34 q9 0 26 -6q166 -60 278 -60q135 0 282 62q12 5 18 5q20 0 20 -23q0 -16 -36 -56q-144 -161 -366 -161q-86 0 -176 27v-405q109 106 264 106q174 0 289 -144q106 -133 106 -312q0 -190 -132.5 -327.5t-321.5 -137.5q-155 0 -266 113t-111 268z" />
<glyph unicode="6" horiz-adv-x="1024" d="M80 660q0 205 75 375q85 191 245 287q111 66 229 66q112 0 184 -54q81 -61 81 -169q0 -44 -26.5 -73t-69.5 -29q-41 0 -68.5 28t-27.5 69q0 98 114 93q-57 85 -183 85q-81 0 -155 -47q-210 -133 -210 -607q84 206 260 206q183 0 303 -143q114 -135 114 -322 q0 -190 -118 -327q-124 -143 -311 -143q-242 0 -353 247q-83 183 -83 458zM271 471q0 -206 38 -302q26 -67 80 -110q59 -47 127 -47q140 0 206 136q36 74 36 223v104q0 160 -38 238q-63 129 -193 129t-199 -127q-57 -103 -57 -244z" />
<glyph unicode="7" horiz-adv-x="1024" d="M64 980l69 430h52q2 -20 14 -33q31 -34 253 -34h507v-15q0 -32 -19 -59l-283 -395q-94 -131 -128 -356q-23 -151 -23 -449q0 -114 -96 -114q-95 0 -95 114q0 384 256 784q78 109 232 329h-499q-117 0 -136 -12q-23 -15 -52 -190h-52z" />
<glyph unicode="8" horiz-adv-x="1024" d="M79 315q0 235 301 384q-55 32 -154 112q-91 99 -91 230q0 149 116 250q111 97 262 97q146 0 255 -81q121 -89 121 -229q0 -194 -253 -323q93 -56 109 -67q60 -40 97 -81q102 -113 102 -258q0 -170 -134 -285q-127 -109 -300 -109q-168 0 -293 94q-138 104 -138 266z M183 315q0 -130 101 -219q97 -84 229 -84q123 0 220 69q108 77 108 195q0 76 -47 135q-33 41 -110 93.5t-257 161.5q-244 -134 -244 -351zM226 1122q0 -91 106 -168q30 -22 257 -168q208 120 208 292q0 112 -89 188q-84 72 -198 72q-105 0 -189 -54q-95 -62 -95 -162z" />
<glyph unicode="9" horiz-adv-x="1024" d="M79 919q0 202 133 339q126 130 307 130q102 0 187 -53q238 -148 238 -648q0 -174 -45 -313q-56 -173 -175 -288q-135 -131 -303 -131q-120 0 -198 51q-92 59 -92 173q0 100 95 100q41 0 69 -27.5t28 -68.5q0 -44 -32.5 -72t-76.5 -23q64 -76 205 -76q77 0 148 47 q120 79 163 274q27 120 27 330q-82 -209 -261 -209q-183 0 -303 143q-114 136 -114 322zM267 873q0 -161 37 -238q64 -132 195 -132q130 0 199 129q55 103 55 246q0 202 -34 293q-62 167 -200 167t-209 -132q-43 -80 -43 -247v-86z" />
<glyph unicode=":" horiz-adv-x="546" d="M164 109q0 44 32 76t77 32t77 -32t32 -76q0 -45 -32 -77t-77 -32t-77 32t-32 77zM164 749q0 44 32 76t77 32t77 -32t32 -76q0 -45 -32 -77t-77 -32t-77 32t-32 77z" />
<glyph unicode=";" horiz-adv-x="546" d="M164 109q0 44 32.5 76t76.5 32q71 0 105 -76q26 -58 26 -139q0 -216 -146 -366q-30 -31 -41 -31q-20 0 -20 22q0 8 14 23q148 161 148 352q0 14 -4 36q-33 -38 -82 -38q-44 0 -76.5 32.5t-32.5 76.5zM164 749q0 44 32.5 76t76.5 32t76.5 -32t32.5 -76t-32.5 -76.5 t-76.5 -32.5t-76.5 32.5t-32.5 76.5z" />
<glyph unicode="&#x3c;" horiz-adv-x="1591" d="M170 582q0 24 27 37l1169 552q6 3 14 3q41 0 41 -41q0 -26 -24 -37l-1090 -514l1090 -514q24 -11 24 -37q0 -41 -41 -41q-8 0 -14 3l-1169 552q-27 13 -27 37z" />
<glyph unicode="=" horiz-adv-x="1591" d="M170 380q0 41 39 41h1175q37 0 37 -41t-37 -41h-1175q-39 0 -39 41zM170 784q0 41 39 41h1175q37 0 37 -41t-37 -41h-1175q-39 0 -39 41z" />
<glyph unicode="&#x3e;" horiz-adv-x="1591" d="M170 31q0 26 24 37l1090 514l-1090 514q-24 11 -24 37q0 41 41 41q8 0 14 -3l1169 -552q27 -13 27 -37t-27 -37l-1169 -552q-6 -3 -14 -3q-41 0 -41 41z" />
<glyph unicode="?" horiz-adv-x="909" d="M87 1171q0 107 91 186q100 87 257 87q207 0 308 -94q79 -73 79 -183q0 -127 -98 -200q-270 -200 -270 -457v-72q0 -55 -27 -55q-25 0 -25 49v92q0 267 181 461q69 74 69 195q0 95 -28 139q-49 80 -195 80q-187 0 -268 -139q114 0 114 -93q0 -94 -94 -94t-94 98zM318 109 q0 44 32 76t77 32t77 -32t32 -76q0 -45 -32 -77t-77 -32t-77 32t-32 77z" />
<glyph unicode="@" horiz-adv-x="1520" d="M82 420q0 275 202 491q207 219 480 219q304 0 491 -203q183 -197 183 -502q0 -157 -60 -280q-75 -157 -216 -157q-70 0 -124.5 52t-62.5 122q-34 -85 -111 -135.5t-169 -50.5q-128 0 -223 50q-119 62 -119 178q0 179 213 279q132 62 394 76v18q0 110 -57 188 q-64 86 -170 86q-153 0 -231 -98q45 0 77.5 -26.5t32.5 -71.5q0 -42 -29 -70t-71 -28q-98 0 -98 99q0 113 109 183q95 61 215 61q185 0 293 -119q50 -55 66 -117q11 -45 11 -135v-367q0 -40 19 -71q22 -37 59 -37q87 0 134 147q33 105 33 216q0 279 -153 452 q-160 181 -436 181q-240 0 -423 -196q-179 -192 -179 -434q0 -289 181 -464t471 -175q222 0 486 123q11 5 19 5q39 0 39 -42q0 -21 -22 -35q-97 -60 -252 -97q-144 -34 -270 -34q-323 0 -526 197q-206 200 -206 522zM517 207q0 -78 57 -130.5t135 -52.5q111 0 183 84 q68 79 68 192v214q-171 -6 -291 -71q-152 -83 -152 -236z" />
<glyph unicode="A" horiz-adv-x="1484" d="M68 0v61q174 2 219 133l409 1177q14 40 46 40t46 -40l425 -1231q21 -61 84 -75q19 -5 77 -5q19 0 43 1v-61q-127 6 -355 6q-113 0 -187 -6v61h5q157 0 157 59q0 29 -47 159q-31 84 -62 169h-487l-56 -146q-39 -107 -39 -140q0 -51 52 -78q42 -23 97 -23v-61 q-189 6 -228 6q-62 0 -199 -6zM464 510h442l-222 641z" />
<glyph unicode="B" horiz-adv-x="1346" d="M68 0v61q62 -2 63 -2q113 0 134 45q5 11 5 42v1051q0 31 -5 42q-19 43 -152 43q-21 0 -45 -1v62h720q161 0 290 -83q148 -95 148 -247q0 -120 -106 -209q-91 -77 -220 -102q147 -16 256 -104q122 -98 122 -238q0 -161 -142 -266q-129 -94 -296 -94h-772zM434 140 q0 -53 19 -68q14 -11 67 -11h257q129 0 217 86t88 215q0 127 -74 218q-79 97 -203 97h-371v-537zM434 721h286q129 0 220 80q94 84 94 212q0 113 -73 190.5t-186 77.5h-255q-53 0 -67 -11q-19 -15 -19 -68v-481z" />
<glyph unicode="C" horiz-adv-x="1335" d="M68 673q0 289 196 501q201 216 488 216q193 0 363 -169l99 144q17 25 31 25q22 0 22 -33v-503q0 -26 -31 -26q-27 0 -33 32q-12 60 -47 178q-51 127 -147 205q-104 85 -234 85q-104 0 -207 -50q-298 -145 -298 -606q0 -476 322 -614q96 -41 185 -41q140 0 256 85t159 218 q17 52 27 140q4 33 23 33q24 0 24 -35q0 -205 -154 -353t-360 -148q-288 0 -488 215q-196 211 -196 501z" />
<glyph unicode="D" horiz-adv-x="1459" d="M68 0v61q68 -2 62 -2q108 0 130 31q10 14 10 52v1060q0 36 -10 50q-21 29 -157 29h-35v62h720q263 0 438 -213q166 -200 166 -468q0 -264 -168 -458q-176 -204 -436 -204h-720zM439 140q0 -53 20 -68q15 -11 67 -11h209q225 0 350 168q110 148 110 433q0 292 -103 437 q-129 182 -359 182h-207q-53 0 -67 -11q-20 -15 -20 -68v-1062z" />
<glyph unicode="E" horiz-adv-x="1354" d="M68 0v61q47 -1 53 -1q125 0 142 38q7 16 7 48v1053q0 30 -7 47q-15 36 -152 36q-20 0 -43 -1v62h1108l56 -442h-49q-24 218 -95 294q-80 86 -293 86h-263q-54 0 -69 -12q-19 -15 -19 -67v-474h178q134 0 176 49q37 44 37 180h51v-521h-51q0 136 -38 180q-42 50 -175 50 h-178v-526q0 -52 19 -67q15 -12 69 -12h273q236 0 326 111q67 84 107 336h49l-84 -508h-1135z" />
<glyph unicode="F" horiz-adv-x="1271" d="M68 0v61h75q64 0 88 10q39 18 39 73v1056q0 25 -6 42q-14 39 -166 39h-30v62h1081l54 -442h-49q-24 217 -89 291q-77 89 -286 89h-252q-45 0 -61 -10q-22 -13 -22 -69v-501h170q132 0 174 51q36 45 36 180h48v-522h-48q0 136 -36 180q-42 51 -174 51h-170v-497 q0 -27 7 -44q16 -39 209 -39h37v-61q-74 6 -135 6h-373q-49 0 -121 -6z" />
<glyph unicode="G" horiz-adv-x="1472" d="M68 673q0 289 196 501q201 216 488 216q198 0 365 -169l99 144q17 25 31 25q21 0 21 -33l1 -503q0 -26 -31 -26q-27 0 -33 32q-12 60 -46 177q-51 128 -147 206q-105 85 -235 85q-104 0 -198 -46q-309 -152 -309 -609q0 -456 312 -609q96 -47 206 -47q124 0 208 56 q98 65 98 183v126q0 40 -9 56q-23 40 -175 40h-63v59q65 -5 194 -5q184 0 364 5v-59q-80 0 -97 -6q-40 -15 -40 -81v-360q0 -29 -16 -29q-42 0 -127 122q-97 -167 -369 -167q-290 0 -491 214q-197 210 -197 502z" />
<glyph unicode="H" horiz-adv-x="1480" d="M68 0v61q9 0 28 -1h28q121 0 139 36q7 14 7 45v1064q0 31 -7 45q-17 34 -149 34h-46v62q70 -6 112 -6h354q45 0 115 6v-62q-9 0 -27.5 1t-27.5 1q-123 0 -142 -36q-8 -16 -8 -45v-474h590v474q0 29 -8 45q-17 34 -148 34h-46v62q70 -6 112 -6h356q43 0 113 6v-62 q-9 0 -27.5 1t-28.5 1q-122 0 -140 -36q-8 -16 -8 -45v-1064q0 -29 8 -45q18 -35 186 -35h10v-61q-71 6 -113 6h-361q-36 0 -107 -6v61q9 0 29 -1h28q119 0 137 36q8 16 8 45v530h-590v-530q0 -29 8 -45q18 -35 187 -35h10v-61q-71 6 -115 6h-358q-37 0 -108 -6z" />
<glyph unicode="I" horiz-adv-x="736" d="M68 0v61q8 0 29 -1h28q128 0 147 36q9 17 9 49v1056q0 32 -9 49q-18 34 -153 34h-51v62q71 -6 115 -6h376q41 0 111 6v-62q-10 0 -29.5 1t-29.5 1q-75 0 -103 -9q-53 -18 -53 -76v-1057q0 -27 11 -48q16 -29 94 -35h110v-61q-71 6 -117 6h-373q-41 0 -112 -6z" />
<glyph unicode="J" horiz-adv-x="970" d="M68 220q0 49 30.5 81.5t79.5 32.5q47 0 78 -31.5t31 -78.5q0 -110 -121 -110h-4q71 -114 217 -114q99 0 156 101q47 83 47 190v910q0 29 -9 47q-19 36 -223 36h-32v62q78 -6 161 -6h221q73 0 203 6v-62q-44 2 -42 2q-60 0 -80 -11q-30 -17 -30 -72l1 -919 q0 -141 -116 -237q-109 -90 -253 -90q-121 0 -214 70q-101 76 -101 193z" />
<glyph unicode="K" horiz-adv-x="1519" d="M68 0v61q8 0 28 -1h27q125 0 141 40q6 15 6 44v1066q0 27 -7 41q-16 33 -176 33h-19v62q70 -6 119 -6h342q50 0 120 6v-62q-9 0 -28 1t-29 1q-126 0 -142 -40q-6 -15 -6 -44v-636l618 588q36 34 36 67q0 61 -91 63v62q69 -6 180 -6q186 0 239 6v-62q-160 -2 -281 -118 l-356 -340l456 -670q42 -62 89 -81q36 -14 117 -14v-61q-127 6 -324 6q-112 0 -183 -6v61h4q113 0 113 59q0 22 -31 68l-357 528l-229 -218v-359q0 -28 9 -45q17 -33 186 -33h10v-61q-71 6 -120 6h-347q-43 0 -114 -6z" />
<glyph unicode="L" horiz-adv-x="1216" d="M68 0v61q8 0 27 -1h26q124 0 142 35q7 14 7 46v1064q0 32 -7 46q-17 33 -185 33h-10v62q71 -6 126 -6h383q47 0 120 6v-62q-11 0 -33 1t-33 1q-156 0 -177 -36q-10 -17 -10 -48v-1062q0 -52 20 -67q15 -12 66 -12h173q212 0 303 123q70 96 94 324h49l-55 -508h-1026z" />
<glyph unicode="M" horiz-adv-x="1793" d="M68 0v61h3q199 0 199 140v1003q0 22 -6 38q-12 32 -89 39q-6 0 -32.5 0.5t-74.5 -0.5v63h341q45 0 61 -43l428 -1102l430 1108q14 36 49 37h349v-63q-9 0 -27.5 1t-28.5 1q-125 0 -141 -41q-6 -15 -6 -45v-1058q0 -26 8 -43q17 -35 185 -35h10v-61q-75 6 -119 6h-334 q-38 0 -113 -6v61h76q63 0 87 10q40 17 40 70v1140h-2l-483 -1245q-14 -36 -36 -36t-39 43l-476 1222h-2v-1064q0 -140 200 -140h3v-61q-209 6 -230 6q-19 0 -230 -6z" />
<glyph unicode="N" horiz-adv-x="1480" d="M68 0v61h3q199 0 199 140v1032q0 29 -8.5 35t-39.5 9q-45 4 -154 4v62h342q30 0 48 -26l696 -1019v847q0 139 -203 139v62q205 -6 232 -6q26 0 230 6v-62h-3q-201 0 -201 -145v-1107q0 -32 -26 -32q-16 0 -34 26l-805 1178q-12 17 -19 25v-1028q0 -140 200 -140h3v-61 q-208 6 -230 6t-230 -6z" />
<glyph unicode="O" horiz-adv-x="1445" d="M68 669q0 285 182 498q191 223 472 223q282 0 473 -223q182 -212 182 -498q0 -285 -183 -494q-192 -218 -472 -218t-471 219q-183 209 -183 493zM270 696q0 -469 265 -632q91 -56 189 -56q90 0 184 55q267 156 267 633q0 438 -260 590q-92 54 -193 54q-99 0 -190 -53 q-262 -153 -262 -591z" />
<glyph unicode="P" horiz-adv-x="1295" d="M68 0v61q73 -1 55 -1q122 0 140 38q7 15 7 48v1051q0 32 -7 48q-16 37 -158 37q-17 0 -37 -1v62h695q174 0 311 -94q154 -106 154 -272q0 -158 -149 -263q-135 -95 -300 -95h-335v-473q0 -32 7 -48q17 -37 181 -37h17v-61q-72 6 -133 6h-326q-50 0 -122 -6zM439 670h272 q313 0 313 307q0 161 -75.5 232.5t-237.5 71.5h-186q-53 0 -67 -12q-19 -14 -19 -67v-532z" />
<glyph unicode="Q" horiz-adv-x="1457" d="M68 669q0 285 182 498q191 223 472 223q282 0 473 -223q182 -212 182 -498q0 -209 -105 -387q-109 -185 -294 -269q62 -192 188 -192q138 0 180 166q9 35 21 35q23 0 23 -41q0 -135 -52 -236q-65 -127 -187 -127q-126 0 -185 130q-34 73 -56 239q-95 -30 -186 -30 q-281 0 -472 218q-184 210 -184 494zM263 669q0 -213 69 -375q86 -199 259 -263q-28 45 -28 94q0 68 47.5 117t115.5 49q144 0 221 -208q233 172 233 586q0 455 -262 613q-96 58 -196 58q-97 0 -192 -56q-267 -157 -267 -615zM607 125q0 -51 33 -85t84 -34q92 0 174 46 q-36 196 -172 196q-50 0 -84.5 -36.5t-34.5 -86.5z" />
<glyph unicode="R" horiz-adv-x="1508" d="M68 0v61q6 0 26 -1h27q125 0 142 35q7 15 7 46v1055q0 27 -6 45q-14 40 -167 40h-29v62h618q183 0 333 -84q180 -100 180 -267q0 -122 -115 -213q-94 -75 -229 -108q165 -57 224 -182q25 -52 40 -161l24 -170q31 -158 118 -158q101 0 131 175q5 31 24 31q24 0 24 -33 q0 -86 -49 -148q-53 -68 -137 -68q-160 0 -248 81q-82 75 -82 237q0 13 1 40v40q0 158 -76 230q-70 67 -183 67h-227v-511q0 -29 7 -46q14 -34 171 -34h26v-61q-74 6 -143 6h-289q-69 0 -143 -6zM439 696h219q339 0 339 296q0 196 -143 256q-84 35 -314 35q-51 0 -69 -7 q-32 -14 -32 -57v-523z" />
<glyph unicode="S" horiz-adv-x="1007" d="M68 -14v431q0 29 24 29q30 0 30 -72q0 -143 117 -250t311 -107q114 0 189 84t75 199q0 102 -62 182q-56 72 -167 100q-88 17 -260 65q-116 42 -186.5 140t-70.5 221q0 160 111 271t271 111q174 0 316 -139l69 112q17 27 29 27q24 0 24 -33v-429q0 -28 -28 -28 q-18 0 -23 22q-7 41 -25 122q-81 290 -360 290q-109 0 -183.5 -74.5t-74.5 -183.5q0 -189 199 -250q85 -19 252 -62q136 -40 215.5 -147.5t79.5 -249.5q0 -168 -109 -287q-112 -123 -279 -123q-236 0 -362 137l-72 -111q-16 -26 -30 -26q-20 0 -20 29z" />
<glyph unicode="T" horiz-adv-x="1413" d="M68 901l36 442h1206l36 -442h-49q-22 262 -88.5 321.5t-330.5 59.5q-46 0 -62 -9q-23 -14 -23 -56v-1071q0 -25 10 -47q18 -38 243 -38h34v-61q-84 6 -154 6h-439q-71 0 -155 -6v61q9 0 38 -1h38q184 0 202 39q8 17 8 47v1072q0 43 -29 56q-17 8 -66 8q-256 0 -321 -62.5 t-86 -318.5h-48z" />
<glyph unicode="U" horiz-adv-x="1480" d="M68 1284v62q73 -6 156 -6h269q84 0 156 6v-62q-48 1 -60 1q-118 0 -136 -34q-9 -17 -9 -51v-759q0 -298 192 -393q62 -31 134 -31q170 0 279 136q100 126 100 301v685q0 89 -63 122q-45 23 -140 23v62q205 -6 234 -6t233 6v-62h-4q-164 0 -192 -85q-8 -24 -8 -68v-668 q0 -203 -118 -349q-127 -157 -325 -157q-204 0 -350 143.5t-146 347.5v760q0 30 -7 43q-18 34 -156 34q-19 0 -39 -1z" />
<glyph unicode="V" horiz-adv-x="1536" d="M68 1284v62q214 -6 344 -6q115 0 188 6v-62h-6q-156 0 -156 -56q0 -30 176 -485l212 -546l361 950q9 24 9 40q0 94 -143 97v62q154 -6 223 -6q99 0 192 6v-62q-164 -1 -214 -132l-440 -1158q-14 -37 -48 -37q-31 0 -47 43l-457 1209q-22 57 -81 71q-19 5 -67 5 q-20 0 -46 -1z" />
<glyph unicode="W" horiz-adv-x="2087" d="M68 1284v62q242 -6 333 -6q114 0 187 6v-62h-5q-161 0 -161 -58q0 -15 4 -27l316 -968l275 845q-17 63 -35 127q-16 48 -50 64q-38 17 -136 17v62q242 -6 333 -6q114 0 187 6v-62h-5q-160 0 -160 -58q0 -15 5 -30l316 -965l296 910q10 31 10 39q0 53 -63 81 q-48 22 -109 23v62q155 -6 234 -6q89 0 179 6v-62q-152 0 -195 -132l-378 -1156q-13 -39 -38 -39q-26 0 -38 37l-328 1003l-323 -1001q-13 -39 -41 -39q-25 0 -37 37l-395 1207q-6 19 -23 53q-23 30 -134 30h-21z" />
<glyph unicode="X" horiz-adv-x="1518" d="M68 0v61q196 0 285 131l323 477l-362 547q-34 51 -99 64q-24 4 -81 4h-41v62q112 -6 298 -6q175 0 246 6v-62q-128 -5 -128 -58q0 -13 268 -410l225 333q17 25 17 46q0 43 -41 67q-34 21 -80 22v62q81 -6 222 -6q24 0 248 6v-62q-198 -2 -285 -128l-271 -395l416 -629 q35 -53 99 -66q25 -5 85 -5h38v-61q-127 6 -360 6q-111 0 -183 -6v61q128 5 128 59q0 10 -320 493l-281 -414q-19 -28 -19 -48q0 -43 42 -68q35 -21 81 -22v-61q-74 6 -191 6q-65 0 -279 -6z" />
<glyph unicode="Y" horiz-adv-x="1566" d="M68 1284v62q126 -6 359 -6q114 0 187 6v-62h-24q-112 0 -112 -48q0 -14 13 -35l356 -581l325 529q21 34 21 58q0 77 -113 77v62q155 -6 228 -6q98 0 191 6v-62q-173 0 -252 -128l-381 -619v-388q0 -34 10 -53q15 -29 90 -35h104v-61q-73 6 -127 6h-320q-55 0 -128 -6v61 q8 0 26 -1h27q124 0 142 36q7 14 7 43v398l-413 675q-34 56 -95 68q-21 4 -121 4z" />
<glyph unicode="Z" horiz-adv-x="1128" d="M68 33q0 21 13 41l766 1207h-310q-206 0 -294 -87.5t-100 -293.5h-51l22 443h900q34 0 34 -32q0 -16 -14 -38l-764 -1205h324q239 0 329 114q76 95 89 344h49l-35 -526h-925q-33 0 -33 33z" />
<glyph unicode="[" horiz-adv-x="682" d="M112 -350v1864h391q68 0 68 -40q0 -41 -68 -41h-309v-1701h309q68 0 68 -41t-68 -41h-391z" />
<glyph unicode="\" horiz-adv-x="569" d="M0 1475q0 41 39 41q33 0 40 -26l488 -1788q2 -7 2 -13q0 -41 -39 -41q-33 0 -40 26l-488 1788q-2 7 -2 13z" />
<glyph unicode="]" horiz-adv-x="682" d="M111 -309q0 41 68 41h309v1701h-309q-68 0 -68 41q0 40 68 40h391v-1864h-391q-68 0 -68 41z" />
<glyph unicode="^" horiz-adv-x="906" d="M110 1026q0 16 34 32q23 10 47 20q129 64 208 204q11 23 36 67q6 11 18 11q13 0 20 -11q11 -23 34 -68q77 -138 208 -203q25 -11 50 -21q31 -15 31 -37q0 -30 -21 -30q-5 0 -7 2q-199 57 -315 265q-103 -186 -314 -265q-3 -2 -8 -2q-21 0 -21 36z" />
<glyph unicode="_" horiz-adv-x="1024" d="M0 -356h1024v-86h-1024v86z" />
<glyph unicode="`" horiz-adv-x="536" d="M108 1283q0 56 81 56q50 0 66 -38q17 -44 94 -271q79 -234 79 -247q0 -12 -19 -12q-12 0 -23 17l-271 472q-7 12 -7 23z" />
<glyph unicode="a" horiz-adv-x="1070" d="M53 204q0 179 213 279q131 61 394 76v78q0 110 -57 188q-64 86 -170 86q-154 0 -231 -98q46 0 78 -26.5t32 -71.5q0 -42 -28.5 -70t-71.5 -28q-98 0 -98 99q0 113 109 183q95 61 215 61q183 0 293 -119q50 -54 66 -117q11 -45 11 -135v-427q0 -40 19 -71q22 -37 59 -37 q79 0 79 175q0 28 -2 80h55v-119q0 -83 -46 -140q-49 -62 -130 -62q-69 0 -116 54q-44 49 -51 120q-35 -85 -111 -135.5t-169 -50.5q-128 0 -223 50q-119 62 -119 178zM217 207q0 -78 56.5 -130.5t135.5 -52.5q111 0 183 84q68 79 68 192v214q-171 -6 -291 -71 q-152 -82 -152 -236z" />
<glyph unicode="b" horiz-adv-x="1160" d="M53 1395v67l307 23v-678q121 139 295 139q191 0 324 -148q128 -143 128 -337q0 -199 -139 -342t-337 -143q-179 0 -281 157q-24 -46 -77 -133h-53v1277q0 88 -47 109q-20 10 -85 10q-16 0 -35 -1zM367 243q0 -45 30 -89q89 -130 225 -130q154 0 243 138q64 99 64 302 q0 199 -60 297q-85 138 -225 138q-91 0 -179 -61q-98 -67 -98 -153v-442z" />
<glyph unicode="c" horiz-adv-x="920" d="M53 461q0 201 130 347q134 152 332 152q121 0 215 -54q113 -64 113 -176q0 -100 -97 -100q-42 0 -70.5 28t-28.5 70q0 94 100 99q-79 78 -229 78q-60 0 -120 -34q-168 -94 -168 -405q0 -306 178 -402q63 -34 123 -34q113 0 181 64q40 37 78 118q30 64 49 64q29 0 29 -22 t-27 -75q-104 -203 -329 -203q-194 0 -328 147q-131 142 -131 338z" />
<glyph unicode="d" horiz-adv-x="1159" d="M53 459q0 198 139.5 342.5t336.5 144.5q163 0 270 -133v464q0 88 -47 109q-20 10 -85 10q-16 0 -35 -1v67l308 23v-1300q0 -88 46 -110q20 -10 85 -10q16 0 35 1v-66l-313 -24v142q-111 -142 -287 -142q-192 0 -324 147q-129 142 -129 336zM230 458q0 -197 61 -296 q85 -138 224 -138q93 0 182 67q96 72 96 162v449q0 32 -24 68q-87 129 -231 129q-154 0 -243 -138q-65 -100 -65 -303z" />
<glyph unicode="e" horiz-adv-x="933" d="M53 471q0 194 124 338q130 151 321 151q180 0 284 -123q99 -115 99 -298q0 -55 -53 -55h-598q0 -207 64 -310q90 -144 242 -144q198 0 290 221q12 29 28 29q27 0 27 -26q0 -30 -35 -90q-110 -188 -322 -188q-198 0 -336 149q-135 146 -135 346zM233 549h507 q-2 140 -52 238q-65 124 -190 124q-41 0 -90 -23q-162 -77 -175 -339z" />
<glyph unicode="f" horiz-adv-x="798" d="M53 855v68h168v246q0 141 95.5 240t236.5 99q72 0 129 -38q64 -43 64 -111q0 -94 -95 -94q-39 0 -65.5 26t-26.5 65q0 69 64 91q-33 15 -70 15q-96 0 -151 -102q-46 -84 -46 -189v-248h251v-68h-246v-704q0 -21 7 -41q15 -44 186 -44h15v-66q-81 6 -145 6h-185 q-36 0 -93 -2q-74 -4 -92 -4v66q28 -1 46 -1q64 0 87 12q34 18 34 76v702h-168z" />
<glyph unicode="g" horiz-adv-x="1082" d="M53 -169q0 77 62 137q55 53 135 76q-94 62 -94 192q0 98 66 176q-101 85 -101 221q0 134 108 226q103 87 239 87q129 0 227 -77q103 101 227 101q45 0 76.5 -30t31.5 -75q0 -64 -62 -64t-62 61q0 44 34 59q-9 2 -20 2q-104 0 -193 -84q87 -81 87 -207q0 -134 -108 -226 q-102 -88 -238 -88q-118 0 -212 67q-36 -43 -36 -100q0 -149 183 -149q19 0 56 1.5t56 1.5q242 0 345 -59q142 -81 142 -244q0 -140 -177 -217q-136 -59 -299 -59q-159 0 -296 59q-177 76 -177 212zM163 -169q0 -109 134 -172q108 -51 231 -51q122 0 228 51q132 64 132 172 q0 183 -357 183h-191q-72 0 -124.5 -55.5t-52.5 -127.5zM281 632q0 -264 187 -264q101 0 152 86q35 59 35 179q0 264 -187 264q-102 0 -153 -87q-34 -58 -34 -178z" />
<glyph unicode="h" horiz-adv-x="1181" d="M53 0v66q30 -1 47 -1q68 0 90 14q29 19 29 83v1115q0 87 -44 108q-21 10 -96 10h-26v67l306 23v-744h2q41 93 125 149t184 56q292 0 292 -314v-502q0 -65 135 -65q15 0 32 1v-66q-200 6 -242 6q-34 0 -240 -6v66q30 -1 48 -1q63 0 86 12q33 19 33 76v519q0 227 -158 227 q-130 0 -213 -109q-76 -100 -76 -234v-400q0 -39 10 -58q18 -33 117 -33q18 0 38 1v-66q-200 6 -239 6q-34 0 -240 -6z" />
<glyph unicode="i" horiz-adv-x="562" d="M53 0v66q51 -1 44 -1q66 0 89 13q33 18 33 79v582q0 85 -41 105q-21 11 -103 11h-14v68l298 23v-802q0 -59 51 -73q19 -5 69 -5h31v-66q-202 6 -223 6q-41 0 -234 -6zM142 1276q0 45 33.5 79t78.5 34q48 0 81.5 -33t33.5 -80q0 -48 -33.5 -81.5t-81.5 -33.5 q-46 0 -79 34.5t-33 80.5z" />
<glyph unicode="j" horiz-adv-x="588" d="M-149 -267q0 42 27.5 70t69.5 28t70.5 -28t28.5 -70q0 -76 -74 -96q58 -29 114 -29q158 0 158 281v861q0 39 -9 60q-20 45 -148 45h-27v68l324 23v-1053q0 -133 -78 -229q-84 -103 -214 -103q-90 0 -159 40q-83 48 -83 132zM160 1276q0 45 33.5 79t78.5 34q48 0 81 -33 t33 -80q0 -48 -33.5 -81.5t-80.5 -33.5q-46 0 -79 34.5t-33 80.5z" />
<glyph unicode="k" horiz-adv-x="1139" d="M53 0v66q10 0 34 -1h34q99 0 99 97v1115q0 87 -45 108q-21 10 -106 10h-16v67l307 23v-1027l302 261q47 41 47 84q0 50 -61 52v68q116 -8 248 -8q64 0 141 8v-68q-133 -6 -270 -114q-174 -137 -174 -156q0 -2 14 -22l273 -383q48 -67 85 -89q42 -25 115 -25h6v-66 q-88 6 -186 6q-62 0 -230 -6v66h6q70 0 70 49q0 38 -255 385l-136 -116v-222q0 -51 11 -67q13 -21 61 -27q17 -2 62 -2h33v-66q-121 6 -236 6q-37 0 -233 -6z" />
<glyph unicode="l" horiz-adv-x="579" d="M53 0v66q10 0 33 -1t35 -1q98 0 98 98v1115q0 87 -44 108q-21 10 -106 10h-16v67l306 23v-1323q0 -50 12 -67q15 -21 65 -27q16 -2 59 -2h32v-66q-220 6 -238 6q-37 0 -236 -6z" />
<glyph unicode="m" horiz-adv-x="1775" d="M53 0v66q26 -1 43 -1q70 0 92 13q31 19 31 84v574q0 87 -44 109q-21 10 -96 10h-26v68l301 23v-225q101 225 316 225q251 0 284 -210q43 95 126.5 152.5t185.5 57.5q158 0 228 -85q63 -77 63 -239v-42q-1 -27 -1 -41v-409q0 -65 132 -65q16 0 35 1v-66q-198 6 -238 6 t-244 -6v66q26 -1 43 -1q71 0 92 13q32 19 32 84v499q0 238 -157 238q-130 0 -213 -109q-76 -100 -76 -234v-401q0 -39 12 -60q18 -30 118 -30q17 0 37 1v-66q-198 6 -242 6q-35 0 -240 -6v66q26 -1 43 -1q71 0 92 13q32 19 32 84v499q0 238 -158 238q-130 0 -213 -109 q-76 -100 -76 -234v-397q0 -47 11 -64q18 -30 114 -30q19 0 40 1v-66q-198 6 -239 6q-35 0 -240 -6z" />
<glyph unicode="n" horiz-adv-x="1181" d="M53 0v66q29 -1 47 -1q68 0 90 14q29 19 29 83v574q0 87 -44 109q-21 10 -96 10h-26v68l301 23v-225q101 225 316 225q292 0 292 -316v-500q0 -65 135 -65q15 0 32 1v-66q-200 6 -242 6q-34 0 -240 -6v66q29 -1 48 -1q63 0 86 12q33 19 33 76v519q0 227 -158 227 q-130 0 -213 -109q-76 -100 -76 -234v-400q0 -38 10 -58q17 -33 117 -33q18 0 38 1v-66q-199 6 -239 6q-34 0 -240 -6z" />
<glyph unicode="o" horiz-adv-x="1054" d="M53 458q0 201 136 350q140 152 339 152q198 0 338 -153q136 -149 136 -349q0 -199 -139 -340.5t-337 -141.5q-196 0 -334.5 142.5t-138.5 339.5zM230 476q0 -207 55 -302q83 -144 243 -144q167 0 248 158q47 92 47 288q0 205 -56 297q-84 138 -241 138q-164 0 -245 -143 q-51 -90 -51 -292z" />
<glyph unicode="p" horiz-adv-x="1160" d="M53 -348q37 -2 47 -2q69 0 90 14q30 19 30 83v1002q0 51 -8 67q-12 25 -56 36q-16 4 -62 4q-18 0 -41 -1v68l307 23v-141q127 141 300 141q189 0 321 -149q126 -144 126 -336q0 -199 -139 -342t-337 -143q-78 0 -154 40q-85 44 -110 111v-388q0 -42 11 -59 q19 -29 114 -29q19 0 41 1v-66q-169 5 -241 5q-73 0 -239 -5v66zM367 243q0 -46 30 -89q91 -130 225 -130q145 0 233 152q74 128 74 285q0 151 -67 278q-81 154 -218 154q-179 0 -277 -172v-478z" />
<glyph unicode="q" horiz-adv-x="1159" d="M53 459q0 197 138 342t334 145q92 0 171 -55q76 -53 116 -139l81 194h47v-1199q0 -46 12 -67q17 -29 112 -29q20 0 42 1v-66q-166 5 -240 5q-80 0 -242 -5v66q37 -2 48 -2q69 0 91 14q30 19 30 83v383q-115 -154 -284 -154q-192 0 -326 147q-130 142 -130 336zM230 459 q0 -152 66 -280q81 -155 219 -155q104 0 194 82t90 185v301q0 112 -73 203q-79 98 -188 98q-96 0 -175 -77q-69 -67 -103 -167q-30 -87 -30 -190z" />
<glyph unicode="r" horiz-adv-x="823" d="M53 0v66q11 0 33 -1t34 -1q100 0 100 98v574q0 87 -45 109q-22 10 -106 10h-16v68l297 23v-235q76 235 262 235q60 0 107 -35q52 -38 52 -96q0 -40 -25.5 -67t-65.5 -27q-39 0 -65.5 26t-26.5 66q0 64 48 84q-6 2 -14 2q-136 0 -207 -140q-55 -111 -55 -262v-346 q0 -62 56 -78q23 -7 108 -7h44v-66q-81 6 -147 6h-174q-38 0 -97 -2q-80 -4 -97 -4z" />
<glyph unicode="s" horiz-adv-x="804" d="M53 9v322q0 32 27 32q21 0 30 -35q37 -146 92 -214q73 -90 206 -90q103 0 167 45q74 52 74 150q0 147 -223 195q-128 28 -148 33q-82 25 -134 67q-91 75 -91 183q0 134 108 204q92 59 233 59q118 0 201 -61q60 61 80 61q24 0 24 -33v-254q0 -35 -29 -35q-23 0 -31 43 l-6 60q-16 87 -84 134q-63 44 -155 44q-94 0 -158 -34q-81 -43 -81 -129t94 -130q48 -22 169 -46q170 -33 243 -102q91 -86 91 -204q0 -146 -102 -226q-92 -72 -242 -72q-140 0 -237 93q-77 -93 -96 -93q-22 0 -22 33z" />
<glyph unicode="t" horiz-adv-x="775" d="M53 855v49q142 5 215 145q59 111 61 268h53v-394h305v-68h-305v-594q0 -231 144 -231q145 0 145 290q0 18 -1 67h52v-122q0 -113 -48 -193q-58 -96 -164 -96q-132 0 -203.5 78t-71.5 211v590h-182z" />
<glyph unicode="u" horiz-adv-x="1181" d="M53 855v68l314 23v-710q0 -114 36 -160q42 -52 152 -52q124 0 196 108q63 94 63 224v380q0 87 -45 109q-21 10 -96 10h-26v68l315 23v-761q0 -87 45 -109q21 -10 96 -10h26v-66l-308 -24v193q-89 -193 -276 -193q-192 0 -263 88q-63 78 -63 275v375q0 102 -35 126 q-23 15 -119 15h-12z" />
<glyph unicode="v" horiz-adv-x="1151" d="M53 855v68q120 -8 207 -8q1 0 233 8v-68q-122 0 -122 -54q0 -15 252 -634l219 546q13 32 13 50q0 90 -102 92v68q135 -8 185 -8q69 0 161 8v-68q-142 -1 -198 -142l-279 -697q-16 -40 -45 -40t-45 40l-309 760q-24 60 -68 73q-18 6 -83 6h-19z" />
<glyph unicode="w" horiz-adv-x="1571" d="M53 855v68q143 -8 198 -8l233 8v-68h-4q-121 0 -121 -58q0 -10 3 -18l211 -591l183 518q-38 105 -54 121q-29 28 -129 28v68q120 -8 189 -8q-1 0 224 8v-68h-4q-124 0 -124 -56q0 -11 11 -42l213 -595l195 546q10 28 10 46q0 98 -125 101v68q151 -8 200 -8q68 0 156 8 v-68q-131 -3 -179 -136l-252 -703q-14 -40 -42 -40t-42 40l-220 608l-216 -606q-15 -42 -42 -42q-28 0 -45 48l-270 757q-19 54 -62 68q-20 6 -78 6h-17z" />
<glyph unicode="x" horiz-adv-x="1183" d="M53 0v66q152 0 267 128q52 58 207 256l-212 276q-71 92 -103 109q-36 20 -149 20v68q110 -8 202 -8q30 0 233 8v-68q-75 -2 -75 -52q0 -20 184 -255l134 167q33 41 33 75q0 61 -63 65v68q108 -8 204 -8q73 0 177 8v-68q-152 -3 -255 -109q-19 -20 -197 -244l287 -369 q37 -47 92 -60q28 -7 95 -7h17v-66q-91 6 -206 6q-54 0 -231 -6v66q77 3 77 54q0 10 -208 285l-162 -201q-30 -37 -30 -71q0 -61 62 -67v-66q-141 6 -203 6q-98 0 -177 -6z" />
<glyph unicode="y" horiz-adv-x="1151" d="M53 -265q0 91 89 91q39 0 65 -25.5t26 -63.5q0 -81 -85 -91q41 -38 101 -38q93 0 158 92q32 45 86 173q18 42 53 127l-321 781q-22 54 -70 68q-21 6 -74 6h-28v68q120 -8 207 -8q30 0 233 8v-68h-4q-116 0 -116 -54q0 -19 250 -616l217 528q14 34 14 50q0 90 -101 92v68 q170 -8 185 -8q69 0 161 8v-68h-2q-140 0 -197 -136l-377 -913q-101 -245 -274 -245q-76 0 -134 48q-62 52 -62 126z" />
<glyph unicode="z" horiz-adv-x="904" d="M53 30q0 15 18 39l592 797h-238q-168 0 -227 -62q-53 -57 -62 -226h-53l24 345h701q38 0 38 -28q0 -14 -18 -38l-588 -793h244q183 0 248 81q52 65 65 255h55l-38 -400h-723q-38 0 -38 30z" />
<glyph unicode="{" horiz-adv-x="983" d="M100 582q0 18 18 21t35 4q242 31 242 252v313q0 107 13 149q20 65 93 116q109 77 285 77q41 0 41 -22q0 -19 -18 -23q-154 -9 -237 -94q-42 -43 -54 -114q-5 -34 -5 -129v-277q0 -89 -21 -132q-47 -96 -202 -141q155 -45 202 -141q21 -42 21 -131v-277q0 -95 5 -129 q12 -71 54 -114q83 -85 237 -94q18 -4 18 -23q0 -23 -41 -23q-174 0 -285 78q-73 51 -93 116q-13 42 -13 149v313q0 117 -75 184q-69 61 -187 70q-33 2 -33 22z" />
<glyph unicode="|" horiz-adv-x="410" d="M164 -311v1788q0 39 41 39t41 -39v-1788q0 -41 -41 -41t-41 41z" />
<glyph unicode="}" horiz-adv-x="983" d="M156 -327q0 19 18 23q154 9 237 94q42 43 54 114q5 34 5 129v277q0 89 21 131q47 96 202 141q-155 45 -202 141q-21 43 -21 132v277q0 95 -5 129q-12 71 -54 114q-83 85 -237 94q-18 4 -18 23q0 22 41 22q176 0 285 -77q73 -51 93 -116q13 -42 13 -149v-313 q0 -117 75 -184q69 -61 187 -70q33 -2 33 -23q0 -17 -18 -20t-35 -4q-242 -31 -242 -252v-313q0 -107 -13 -149q-20 -65 -93 -116q-111 -78 -285 -78q-41 0 -41 23z" />
<glyph unicode="~" horiz-adv-x="1058" d="M37 438q0 109 71 191q74 87 181 87q100 0 247.5 -117t233.5 -117q155 0 192 184q9 49 31 49q28 0 28 -56q0 -111 -70 -193q-73 -86 -181 -86q-100 0 -247.5 116.5t-233.5 116.5q-136 0 -179 -131q-6 -29 -13 -58q-12 -43 -30 -43q-30 0 -30 57z" />
<glyph unicode="&#xa1;" horiz-adv-x="682" d="M232 935q0 45 32 77t77 32t77 -32t32 -77q0 -44 -32 -76t-77 -32t-77 32t-32 76zM233 -318l79 932q4 47 29 47t29 -47l79 -932v-9q0 -43 -32 -69t-76 -26t-76 26t-32 69v9z" />
<glyph unicode="&#xa2;" horiz-adv-x="920" d="M53 661q0 188 116 331q120 148 302 166v288h60v-286q118 -5 206 -58q106 -64 106 -172q0 -100 -97 -100q-42 0 -70.5 28t-28.5 70q0 94 100 99q-75 74 -216 78v-875q113 0 181 64q40 37 78 118q30 64 49 64q29 0 29 -22t-27 -75q-100 -194 -310 -203v-284h-60v286 q-179 16 -300 159q-118 139 -118 324zM230 666q0 -306 178 -402q31 -17 63 -26v862q-37 -9 -73 -29q-168 -94 -168 -405z" />
<glyph unicode="&#xa3;" horiz-adv-x="1051" d="M71 97q0 65 44 106.5t110 41.5q35 0 94 -10q4 50 4 90q0 100 -21 364h-213v60h209q-9 121 -9 208q0 171 92 293q102 134 268 134q117 0 182 -66q61 -62 61 -131q0 -27 -20.5 -50t-47.5 -23q-49 0 -61 61q-22 109 -24 112q-27 61 -114 61q-192 0 -192 -294q0 -57 10 -153 q11 -112 13 -152h357v-60h-356q0 -270 -66 -469q84 -28 167 -56q101 -30 172 -30q135 0 189 107q8 20 15 40q12 29 24 29q18 0 18 -20q0 -26 -22 -89q-78 -225 -264 -225q-85 0 -177 56q-32 19 -153 112q-81 -168 -182 -168q-50 0 -78.5 35t-28.5 86zM108 104q0 -89 75 -89 q88 0 126 154q-52 34 -96 34q-105 0 -105 -99z" />
<glyph unicode="&#xa4;" horiz-adv-x="1024" d="M28 155l144 145q-102 123 -102 282q0 160 102 283l-144 141l56 57l145 -141q123 102 283 102t283 -103l143 142l58 -57l-144 -141q102 -123 102 -283q0 -159 -102 -282l144 -145l-58 -55l-143 143q-123 -103 -283 -103t-283 102l-145 -142zM152 582q0 -149 105.5 -254.5 t254.5 -105.5t254.5 105.5t105.5 254.5t-105.5 254.5t-254.5 105.5t-254.5 -105.5t-105.5 -254.5z" />
<glyph unicode="&#xa5;" horiz-adv-x="1566" d="M68 1284v62q126 -6 359 -6q114 0 187 6v-62h-24q-112 0 -112 -48q0 -14 13 -35l298 -487h115l268 435q21 34 21 58q0 77 -113 77v62q155 -6 228 -6q98 0 191 6v-62q-174 0 -252 -128l-272 -442h355v-60h-392l-72 -117v-13h464v-60h-464v-315q0 -34 10 -53q15 -29 89 -35 h105v-61q-73 6 -127 6h-320q-55 0 -128 -6v61q8 0 26 -1h27q124 0 142 36q7 14 7 43v325h-461v60h461v13l-72 117h-389v60h352l-304 498q-35 56 -95 68q-21 4 -121 4zM826 654l21 -34l21 34h-42z" />
<glyph unicode="&#xa6;" horiz-adv-x="386" d="M164 -289v642q0 61 41 61t41 -61v-642q0 -61 -41 -61t-41 61zM164 811v642q0 61 41 61t41 -61v-642q0 -61 -41 -61t-41 61z" />
<glyph unicode="&#xa7;" horiz-adv-x="964" d="M146 531q0 194 209 319q-117 128 -117 244q0 112 77.5 189t189.5 77q93 0 164 -57q75 -60 75 -151q0 -84 -74 -84q-31 0 -52.5 21t-21.5 51q0 16 6.5 46t6.5 45q0 89 -104 89q-68 0 -115.5 -48t-47.5 -117q0 -101 123 -206q115 -91 229 -183q123 -119 123 -256 q0 -197 -207 -321q116 -126 116 -240q0 -115 -77 -192.5t-191 -77.5q-93 0 -163 59q-74 63 -74 154q0 32 21 57t53 25q71 0 71 -81q0 -18 -8 -52t-8 -51q0 -36 41 -57q32 -16 72 -16q61 0 113.5 47t52.5 108q0 101 -125 211q-116 95 -232 191q-126 123 -126 257zM243 613 q0 -109 125 -226l210 -172q145 87 145 208q0 106 -127 224q-105 87 -211 174q-142 -84 -142 -208z" />
<glyph unicode="&#xa8;" horiz-adv-x="656" d="M0 1306q0 42 30 72t72 30t72 -30t30 -72t-30 -72t-72 -30t-72 30t-30 72zM452 1306q0 42 30 72t72 30t72 -30t30 -72t-30 -72t-72 -30t-72 30t-30 72z" />
<glyph unicode="&#xa9;" horiz-adv-x="1524" d="M95 548q0 276 196 472.5t472 196.5q275 0 470.5 -197t195.5 -472q0 -276 -196 -472t-472 -196q-275 0 -470.5 196t-195.5 472zM146 548q0 -256 180.5 -437t436.5 -181q254 0 434.5 181.5t180.5 436.5t-181 436.5t-436 181.5q-254 0 -434.5 -182t-180.5 -436zM338 525 q0 183 125.5 318t307.5 135q122 0 227 -102q64 102 82 102q19 0 19 -24v-315q0 -23 -24 -23q-20 0 -26 26q-7 37 -29 110q-73 178 -234 178q-159 0 -241 -129q-70 -109 -70 -276q0 -295 197 -380q57 -25 115 -25q86 0 156.5 51.5t97.5 133.5q6 32 19 96q4 16 18 16 q21 0 21 -27q0 -130 -98.5 -224t-229.5 -94q-183 0 -309 136q-124 133 -124 317z" />
<glyph unicode="&#xaa;" horiz-adv-x="822" d="M40 725q0 125 165 194q99 41 289 51v43q0 73 -44 122.5t-116 49.5q-94 0 -150 -47q70 -13 70 -74q0 -34 -25.5 -54.5t-59.5 -20.5q-84 0 -84 76q0 83 89 132q74 40 164 40q142 0 227 -82q60 -58 60 -174v-284q0 -62 49 -62q55 0 47 170h62v-90q0 -62 -40 -103t-102 -41 q-98 0 -129 97q-67 -105 -206 -105q-96 0 -170 34q-96 44 -96 128zM183 727q0 -50 43 -82q38 -30 90 -30q75 0 126.5 49t51.5 124v132q-116 -5 -198 -43q-113 -52 -113 -150z" />
<glyph unicode="&#xab;" horiz-adv-x="1140" d="M47 421q0 15 15 25q29 15 87 46q186 100 265 266q13 33 26 65q20 41 49 41q39 0 39 -27q0 -3 -3 -10q-123 -284 -344 -406q223 -124 344 -406q3 -7 3 -10q0 -27 -48 -27q-20 0 -41 44q-12 30 -25 61q-79 165 -266 268q-29 14 -86 45q-15 10 -15 25zM471 421q0 15 15 25 q29 15 87 46q186 100 265 266q13 33 26 65q20 41 48 41q40 0 40 -27q0 -3 -3 -10q-123 -284 -344 -406q223 -124 344 -406q3 -7 3 -10q0 -27 -47 -27q-20 0 -41 44q-13 30 -26 61q-79 165 -266 268q-30 14 -86 45q-15 10 -15 25z" />
<glyph unicode="&#xac;" horiz-adv-x="1591" d="M170 688q0 41 39 41h1058q37 0 37 -37v-473q0 -37 -41 -37t-41 37v428h-1013q-39 0 -39 41z" />
<glyph unicode="&#xad;" horiz-adv-x="768" d="M95 582q0 41 39 41h502q37 0 37 -41t-37 -41h-502q-39 0 -39 41z" />
<glyph unicode="&#xae;" horiz-adv-x="1524" d="M95 548q0 276 196 472.5t472 196.5q275 0 470.5 -197t195.5 -472q0 -276 -196 -472t-472 -196q-275 0 -470.5 196t-195.5 472zM146 548q0 -256 180.5 -437t436.5 -181q254 0 434.5 181.5t180.5 436.5t-181 436.5t-436 181.5q-254 0 -434.5 -182t-180.5 -436zM349 118v47 h20q12 -1 19 -1q75 0 85 20q4 8 4 26v664q0 16 -4 27q-9 24 -124 21v48h393q116 0 212 -55q114 -65 114 -172q0 -144 -205 -202q116 -45 143 -147l34 -204q18 -63 62 -63q58 0 77 106q4 24 19 24q20 0 20 -26q0 -56 -32 -97q-34 -44 -89 -44q-211 0 -211 205v26q1 17 1 25 q0 180 -158 180h-137v-316q0 -17 4 -26q9 -21 124 -19v-47q-48 4 -88 4h-195q-40 0 -88 -4zM592 563h133q206 0 206 180q0 112 -75 152q-53 28 -172 28h-53q-39 0 -39 -35v-325z" />
<glyph unicode="&#xaf;" horiz-adv-x="1024" d="M0 1357v86h1024v-86h-1024z" />
<glyph unicode="&#xb0;" horiz-adv-x="771" d="M96 1121q0 120 84.5 204.5t204.5 84.5q121 0 205.5 -84.5t84.5 -204.5q0 -121 -84.5 -205t-205.5 -84q-120 0 -204.5 84.5t-84.5 204.5zM175 1121q0 -87 62 -148.5t148 -61.5q88 0 149 61.5t61 148.5q0 88 -61 149t-149 61q-87 0 -148.5 -61.5t-61.5 -148.5z" />
<glyph unicode="&#xb1;" horiz-adv-x="1591" d="M170 41q0 41 39 41h546v502h-546q-39 0 -39 41t39 41h546v546q0 39 41 39t41 -39v-546h547q37 0 37 -41t-37 -41h-547v-502h547q37 0 37 -41t-37 -41h-1175q-39 0 -39 41z" />
<glyph unicode="&#xb2;" horiz-adv-x="801" d="M79 579v22q0 26 21 47l300 296q160 158 160 299q0 93 -52 153q-55 63 -147 63q-136 0 -195 -119q98 -2 98 -83q0 -36 -27 -59.5t-64 -23.5q-94 0 -94 87q0 113 97 190q90 71 206 71q136 0 232 -70q108 -78 108 -209q0 -82 -60 -158q-33 -42 -125 -121l-300 -259h300 q82 0 95 9.5t33 125.5h59l-46 -261h-599z" />
<glyph unicode="&#xb3;" horiz-adv-x="801" d="M67 776q0 90 97 90q40 0 69 -24t29 -63q0 -82 -93 -87q75 -85 219 -85q86 0 129 70q37 58 37 149q0 220 -176 220q-9 0 -26 -1t-25 -1q-65 0 -65 28q0 24 94 30q173 10 173 220q0 146 -140 146q-122 0 -187 -67q86 -6 86 -79q0 -80 -89 -80q-90 0 -90 81q0 96 100 152 q83 47 187 47q106 0 193 -47q105 -57 105 -154q0 -81 -59 -149q-53 -61 -134 -93q97 -26 161 -89q73 -71 73 -164q0 -124 -112 -204q-101 -73 -230 -73q-118 0 -213 54q-113 64 -113 173z" />
<glyph unicode="&#xb4;" horiz-adv-x="378" d="M0 1151l248 322q22 29 54 29q30 0 53 -22.5t23 -52.5q0 -32 -28 -55l-313 -256z" />
<glyph unicode="&#xb5;" horiz-adv-x="1120" d="M52 -417q37 173 37 311v1029h147v-663q0 -237 159 -237q129 0 212 105q77 97 77 229v566h148v-765q0 -39 20 -71q23 -37 60 -37q78 0 78 171q0 -9 -2 86h55v-120q0 -84 -45 -141q-50 -62 -131 -62q-84 0 -129 69q-40 60 -40 148q-101 -225 -317 -225q-83 0 -144 25v-66 q0 -221 -37 -352h-148z" />
<glyph unicode="&#xb6;" horiz-adv-x="964" d="M37 933q0 177 128 270q113 83 296 83h466v-60h-90v-1633h-80v1633h-167v-1633h-80v982h-49q-189 0 -299 82q-125 93 -125 276z" />
<glyph unicode="&#xb7;" horiz-adv-x="298" d="M40 582q0 44 32 76t77 32t77 -32t32 -76q0 -45 -32 -77t-77 -32t-77 32t-32 77z" />
<glyph unicode="&#xb8;" horiz-adv-x="464" d="M0 -359q327 0 327 118q0 56 -45 89q-39 29 -98 30v127h96v-95q70 -11 121 -45q63 -43 63 -106q0 -161 -376 -161h-88v43z" />
<glyph unicode="&#xb9;" horiz-adv-x="801" d="M133 1371v62q193 0 290 89h12q38 0 38 -45v-786q0 -18 5 -28q11 -22 190 -21v-64q-67 5 -105 5h-316q-38 0 -105 -5v64q13 0 41.5 -1t42.5 -1q93 0 106 24q5 9 5 30v708q-80 -31 -204 -31z" />
<glyph unicode="&#xba;" horiz-adv-x="810" d="M40 894q0 145 112 245q108 98 254 98q145 0 253 -98q112 -101 112 -245q0 -143 -114 -239q-108 -92 -253 -92q-144 0 -251 92q-113 97 -113 239zM192 905q0 -133 40 -195q59 -91 174 -91q120 0 177 100q34 60 34 186q0 132 -41 192q-60 88 -172 88q-117 0 -175 -91 q-37 -58 -37 -189z" />
<glyph unicode="&#xbb;" horiz-adv-x="1140" d="M189 5q0 5 2 10q116 279 345 406q-227 125 -345 406q-2 4 -2 10q0 27 39 27q29 0 48 -41q13 -32 26 -65q78 -165 265 -266q31 -14 88 -46q15 -10 15 -25t-15 -25l-87 -45q-188 -104 -266 -268l-26 -64q-20 -41 -46 -41q-41 0 -41 27zM613 5q0 5 1 10q117 279 346 406 q-227 125 -346 406q-1 4 -1 10q0 27 39 27q28 0 48 -41q13 -32 26 -65q78 -165 265 -266q30 -14 88 -46q14 -10 14 -25t-14 -25q-30 -15 -87 -45q-188 -104 -266 -268l-26 -64q-20 -41 -46 -41q-41 0 -41 27z" />
<glyph unicode="&#xbc;" horiz-adv-x="1722" d="M133 1372v62q193 0 290 89h12q38 0 38 -45v-786q0 -18 5 -28q11 -22 190 -21v-64q-67 5 -112 5h-302q-45 0 -112 -5v64q16 0 37 -1t30 -1q109 0 123 24q5 9 5 30v708q-80 -31 -204 -31zM347 -251q0 13 6 22l1071 1667q11 17 35 17q40 0 40 -40q0 -13 -6 -22l-1071 -1667 q-11 -17 -35 -17q-40 0 -40 40zM965 -44l481 653q15 21 40 21q35 0 35 -47v-620h156v-63h-156v-120q0 -18 5 -27q11 -20 147 -19v-64q-78 5 -117 5h-213q-36 0 -114 -5v64l58 -1q76 0 88 20q6 10 6 27v120h-416v56zM1038 -37h352v476z" />
<glyph unicode="&#xbd;" horiz-adv-x="1722" d="M133 1372v62q193 0 290 89h12q38 0 38 -45v-786q0 -18 5 -28q11 -22 190 -21v-64q-67 5 -112 5h-302q-45 0 -112 -5v64q16 0 37 -1t30 -1q109 0 123 24q5 9 5 30v708q-80 -31 -204 -31zM267 -251q0 13 6 22l1071 1667q11 17 35 17q40 0 40 -40q0 -13 -6 -22l-1071 -1667 q-11 -17 -35 -17q-40 0 -40 40zM999 -307q0 26 21 47l300 296q160 158 160 299q0 89 -49 149q-55 67 -150 67q-136 0 -195 -119q98 -2 98 -83q0 -35 -26.5 -59t-64.5 -24q-94 0 -94 87q0 109 92 186q89 75 211 75q142 0 238 -74q102 -79 102 -205q0 -82 -61 -159 q-32 -40 -124 -120l-300 -259h285q97 0 110 9.5t33 125.5h59l-46 -261h-599v22z" />
<glyph unicode="&#xbe;" horiz-adv-x="1722" d="M67 777q0 90 97 90q42 0 70 -24.5t28 -62.5q0 -82 -93 -87q74 -85 219 -85q88 0 131 72q35 58 35 147q0 220 -176 220h-81q-35 0 -35 26q0 25 94 30q87 5 130 67t43 153q0 146 -140 146q-123 0 -187 -67q86 -8 86 -79q0 -80 -89 -80q-90 0 -90 81q0 94 97 150 q83 49 190 49q109 0 196 -49q102 -57 102 -152q0 -79 -57 -147q-52 -62 -136 -95q100 -27 164 -92q70 -70 70 -161q0 -120 -107 -201q-100 -76 -235 -76q-121 0 -216 56q-110 65 -110 171zM347 -251q0 13 6 22l1071 1667q11 17 35 17q40 0 40 -40q0 -13 -6 -22l-1071 -1667 q-11 -17 -35 -17q-40 0 -40 40zM965 -44l481 653q15 21 40 21q35 0 35 -47v-620h156v-63h-156v-120q0 -18 5 -27q11 -20 147 -19v-64q-78 5 -117 5h-213q-36 0 -114 -5v64l58 -1q76 0 88 20q6 10 6 27v120h-416v56zM1038 -37h352v476z" />
<glyph unicode="&#xbf;" horiz-adv-x="909" d="M87 -123q0 127 98 200q270 200 270 457v72q0 55 27 55q25 0 25 -49v-92q0 -267 -181 -461q-69 -74 -69 -195q0 -95 28 -139q49 -80 195 -80q187 0 268 139q-114 0 -114 93q0 94 94 94t94 -98q0 -107 -91 -186q-100 -87 -257 -87q-207 0 -308 94q-79 73 -79 183zM373 935 q0 45 32 77t77 32t77 -32t32 -77q0 -44 -32 -76t-77 -32t-77 32t-32 76z" />
<glyph unicode="&#xd7;" horiz-adv-x="1591" d="M270 99q0 16 11 27l457 456l-457 456q-11 11 -11 27q0 42 42 42q16 0 27 -11l456 -456l458 458q10 10 25 10q43 0 43 -44q0 -14 -10 -24l-458 -458l458 -458q10 -10 10 -24q0 -44 -43 -44q-15 0 -25 10l-458 458l-456 -456q-11 -11 -27 -11q-42 0 -42 42z" />
<glyph unicode="&#xe6;" horiz-adv-x="1495" d="M53 196q0 180 221 274q161 68 381 75v94q0 111 -56 188q-63 86 -170 86q-154 0 -232 -98q110 -1 110 -100q0 -43 -28 -70.5t-71 -27.5q-99 0 -99 101q0 113 109 182q95 60 215 60q228 0 328 -165q138 165 323 165q174 0 271 -126q88 -115 88 -294q0 -56 -53 -56h-586 q3 -323 188 -421q64 -33 126 -33q92 0 166 60q69 56 98 147q15 45 33 45q28 0 28 -26q0 -31 -33 -92q-103 -188 -301 -188q-218 0 -357 190q-45 -92 -151 -144q-95 -46 -207 -46q-129 0 -222 46q-119 58 -119 174zM219 196q0 -74 55 -123t131 -49q110 0 193 75.5t83 183.5 q0 19 -6 47q-20 97 -20 154q-171 -6 -285 -63q-151 -76 -151 -225zM806 549h494q-17 364 -218 364q-45 0 -95 -23q-160 -77 -181 -341z" />
<glyph unicode="&#xe7;" horiz-adv-x="920" d="M53 461q0 201 130 347q134 152 332 152q121 0 215 -54q113 -64 113 -176q0 -100 -97 -100q-42 0 -70.5 28t-28.5 70q0 94 100 99q-79 78 -229 78q-60 0 -120 -34q-168 -94 -168 -405q0 -306 178 -402q63 -34 123 -34q113 0 181 64q40 37 78 118q30 64 49 64q29 0 29 -22 t-27 -75q-90 -175 -273 -199v-68q70 -11 121 -45q63 -43 63 -106q0 -161 -376 -161h-88v43q327 0 327 118q0 56 -45 89q-39 29 -98 30v98q-180 16 -301 159q-118 139 -118 324z" />
<glyph unicode="&#xf0;" horiz-adv-x="1024" d="M57 434q0 199 133.5 340t319.5 141q157 0 258 -176q-59 258 -254 441l-233 -134q-4 -3 -11 -3q-30 0 -30 36q0 14 11 20l214 124q-149 119 -324 168l39 30q201 -24 383 -141l240 138q6 3 11 3q31 0 31 -36q0 -13 -11 -20l-216 -124q345 -267 345 -713v-94 q0 -190 -133.5 -323.5t-319.5 -133.5t-319.5 133.5t-133.5 323.5zM227 459q0 -214 64 -312q77 -118 219 -118q140 0 219 118q62 93 64 287q1 191 -78.5 313.5t-204.5 122.5q-139 0 -219 -116q-64 -93 -64 -295z" />
<glyph unicode="&#xf7;" horiz-adv-x="1591" d="M170 582q0 41 39 41h1175q37 0 37 -41t-37 -41h-1175q-39 0 -39 41zM681 134q0 47 33.5 80t80.5 33t80.5 -33t33.5 -80q0 -46 -34 -79.5t-80 -33.5t-80 33.5t-34 79.5zM681 1030q0 46 34 79.5t80 33.5t80 -33.5t34 -79.5q0 -47 -33.5 -80t-80.5 -33t-80.5 33t-33.5 80z " />
<glyph unicode="&#xf8;" horiz-adv-x="1054" d="M53 458q0 201 136 350q140 152 339 152q119 0 223 -60l142 246l41 -26l-143 -247q97 -70 154 -181t57 -234q0 -199 -139 -340.5t-337 -141.5q-118 0 -221 56l-142 -246l-41 26l142 245q-211 145 -211 401zM230 476q0 -238 80 -339l405 700q-81 74 -189 74 q-164 0 -245 -143q-51 -90 -51 -292zM345 101q79 -71 183 -71q167 0 248 158q47 92 47 288q0 227 -74 324z" />
<glyph unicode="&#x131;" horiz-adv-x="562" d="M53 0v66q51 -1 44 -1q66 0 89 13q33 18 33 79v582q0 85 -41 105q-23 12 -117 11v68l298 23v-802q0 -59 51 -73q24 -7 100 -5v-66q-202 6 -223 6q-41 0 -234 -6z" />
<glyph unicode="&#x153;" horiz-adv-x="1650" d="M53 469q0 197 129 341q134 150 328 150q238 0 375 -216q129 216 356 216q174 0 270 -126q87 -114 87 -294q0 -56 -53 -56h-584q3 -321 186 -420q63 -34 129 -34q92 0 165 60q69 56 98 147q15 45 32 45q27 0 27 -26q0 -29 -23 -78q-43 -92 -125.5 -147t-182.5 -55 q-116 0 -217.5 61t-162.5 162q-60 -102 -159 -162q-102 -61 -218 -61q-195 0 -329 151q-128 144 -128 342zM218 478q0 -331 181 -426q53 -28 113 -28q65 0 125 35q176 103 176 419q0 306 -179 402q-61 33 -122 33q-156 0 -233 -148q-61 -116 -61 -287zM964 549h494 q-18 364 -219 364q-46 0 -94 -23q-161 -77 -181 -341z" />
<glyph unicode="&#x192;" horiz-adv-x="1033" d="M32 -276q0 49 30 84t79 35q75 0 75 -71q0 -43 -29.5 -75.5t-72.5 -34.5q37 -37 107 -37q66 0 109 121q15 41 48 204q29 140 69 355l95 511h-173q-20 0 -20 20q0 48 36 48h171q43 231 47 244q38 160 95 224q83 94 185 94q71 0 130 -39q66 -44 66 -111q0 -46 -28.5 -79.5 t-73.5 -33.5q-88 0 -88 82q0 38 26.5 68.5t64.5 35.5q-41 31 -94 31q-60 0 -102 -67q-9 -14 -91 -449h208q22 0 22 -22q0 -15 -11 -30.5t-25 -15.5h-208l-93 -503q-37 -200 -62 -297q-46 -182 -104 -280q-93 -158 -208 -158q-71 0 -122 37q-58 41 -58 109z" />
<glyph unicode="&#x2c6;" horiz-adv-x="682" d="M60 1054l189 331h184l190 -331h-31l-273 213l-229 -213h-30z" />
<glyph unicode="&#x2c7;" horiz-adv-x="682" d="M60 1385h31l273 -212l229 212h30l-189 -331h-184z" />
<glyph unicode="&#x2d8;" horiz-adv-x="682" d="M55 1358h31q33 -60 76 -86q73 -43 181 -43t180 42q51 30 71 87h33q-9 -119 -87 -198q-81 -82 -199 -82t-198 82q-78 79 -88 198z" />
<glyph unicode="&#x2d9;" horiz-adv-x="682" d="M233 1228q0 46 31.5 77.5t77.5 31.5q45 0 77 -32t32 -77t-32 -77t-77 -32t-77 32t-32 77z" />
<glyph unicode="&#x2da;" horiz-adv-x="682" d="M150 1233q0 80 55.5 135.5t135.5 55.5t136 -55.5t56 -135.5q0 -81 -55.5 -136.5t-136.5 -55.5q-80 0 -135.5 56t-55.5 136zM219 1233q0 -51 35.5 -86.5t86.5 -35.5t86.5 35.5t35.5 86.5t-35.5 86.5t-86.5 35.5t-86.5 -35.5t-35.5 -86.5z" />
<glyph unicode="&#x2db;" horiz-adv-x="682" d="M30 -277q0 94 93 193q42 45 169 144h35q-85 -91 -110 -127q-58 -81 -58 -153q0 -116 105 -116q44 0 87 26l15 -29q-90 -90 -178 -90q-67 0 -112.5 42.5t-45.5 109.5z" />
<glyph unicode="&#x2dc;" horiz-adv-x="682" d="M22 1097q8 259 188 259q71 0 178.5 -69.5t146.5 -69.5q72 0 95 139h31v-7q1 -162 -96 -225q-47 -31 -94 -31q-72 0 -180 70.5t-144 70.5q-48 0 -70 -48q-9 -18 -23 -89h-32z" />
<glyph unicode="&#x2dd;" horiz-adv-x="682" d="M78 1044l66 346h187l-220 -346h-33zM392 1044l65 346h187l-218 -346h-34z" />
<glyph unicode="&#x370;" horiz-adv-x="1153" d="M68 0v61q9 0 28 -1h28q121 0 139 36q7 14 7 45v1064q0 31 -7 45q-17 34 -149 34h-46v62q70 -6 112 -6h354q45 0 115 6v-62q-9 0 -27.5 1t-27.5 1q-123 0 -142 -36q-8 -16 -8 -45v-477h375q134 0 176 49q37 44 37 180h54v-521h-54q0 136 -38 180q-42 50 -175 50h-375v-525 q0 -29 8 -45q18 -36 197 -35v-61q-71 6 -115 6h-358q-37 0 -108 -6z" />
<glyph unicode="&#x371;" horiz-adv-x="849" d="M52 856v67l299 23v-415h446v-100h-446v-431h-141v739q0 86 -41 106q-22 12 -117 11z" />
<glyph unicode="&#x372;" horiz-adv-x="1512" d="M86 561l38 782h1264l38 -782h-57q-16 192 -26 271q-23 182 -60 257q-94 193 -344 193q-49 0 -66 -8q-29 -13 -29 -56v-1072q0 -30 8 -47q18 -39 196 -39q-16 0 82 1v-61q-84 6 -155 6h-438q-71 0 -155 -6v61q98 -1 82 -1q178 0 196 39q8 17 8 47v1072q0 43 -29 56 q-17 8 -66 8q-250 0 -344 -193q-52 -106 -86 -528h-57z" />
<glyph unicode="&#x373;" horiz-adv-x="1122" d="M49 630v35q0 95 72.5 176.5t166.5 81.5h546q94 0 166.5 -81.5t72.5 -176.5v-35h-45q-6 76 -46 126q-45 57 -118 57h-229v-813h-148v813h-229q-73 0 -118 -57q-40 -50 -46 -126h-45z" />
<glyph unicode="&#x374;" horiz-adv-x="506" d="M81 756q0 5 2 12l187 684q17 62 77 62q35 0 62 -23.5t27 -57.5q0 -17 -8 -36l-285 -664q-4 -10 -12 -10q-50 0 -50 33z" />
<glyph unicode="&#x375;" horiz-adv-x="506" d="M70 -356q0 17 8 36l285 664q4 10 12 10q50 0 50 -33q0 -5 -2 -12l-187 -684q-17 -62 -77 -62q-35 0 -62 23.5t-27 57.5z" />
<glyph unicode="&#x376;" horiz-adv-x="1631" d="M68 0v61q9 0 28 -1h28q121 0 139 36q7 14 7 45v1064q0 31 -7 45q-17 34 -149 34h-46v62q70 -6 112 -6h354q45 0 115 6v-62q-9 0 -27.5 1t-27.5 1q-123 0 -142 -36q-8 -16 -8 -45v-967l734 1009q-15 37 -149 37h-46v62q70 -6 112 -6h356q43 0 113 6v-62q-9 0 -27.5 1 t-28.5 1q-122 0 -140 -36q-8 -16 -8 -45v-1064q0 -29 8 -45q18 -36 196 -35v-61q-71 6 -113 6h-361q-36 0 -107 -6v61q9 0 29 -1h28q119 0 137 36q8 16 8 45v964l-734 -1008l1 -1q14 -30 90 -35q7 -1 107 0v-61q-71 6 -115 6h-358q-37 0 -108 -6z" />
<glyph unicode="&#x377;" horiz-adv-x="1123" d="M52 856v67l299 23v-760l565 737h102v-600q0 -140 40 -323h-148q-40 135 -40 347v390l-519 -677v-60h-141v739q0 86 -41 106q-22 12 -117 11z" />
<glyph unicode="&#x37a;" horiz-adv-x="982" d="M210 -361q0 14 3 27l55 242q6 26 31 26q24 0 30 -26l56 -242q3 -13 3 -25q0 -83 -88 -83q-90 0 -90 81z" />
<glyph unicode="&#x37b;" horiz-adv-x="920" d="M53 254q0 22 29 22q19 0 49 -64q38 -81 78 -118q68 -64 181 -64q60 0 123 34q178 96 178 402q0 310 -168 405q-60 34 -120 34q-85 0 -128 -56q-4 -6 -52 -105q-27 -56 -74 -56q-81 0 -81 81q0 85 131 143q108 48 207 48q198 0 333 -152q129 -146 129 -347 q0 -196 -131 -338q-134 -147 -328 -147q-223 0 -329 203q-27 52 -27 75z" />
<glyph unicode="&#x37c;" horiz-adv-x="920" d="M53 461q0 201 129 347q135 152 333 152q99 0 207 -48q131 -58 131 -143q0 -81 -81 -81q-47 0 -74 56q-48 99 -52 105q-43 56 -128 56q-60 0 -120 -34q-168 -95 -168 -405q0 -306 178 -402q63 -34 123 -34q113 0 181 64q40 37 78 118q30 64 49 64q29 0 29 -22 q0 -23 -27 -75q-106 -203 -329 -203q-194 0 -328 147q-131 142 -131 338zM400 466q0 46 32 78t78 32t78 -32t32 -78t-32 -78t-78 -32t-78 32t-32 78z" />
<glyph unicode="&#x37d;" horiz-adv-x="920" d="M53 254q0 22 29 22q19 0 49 -64q38 -81 78 -118q68 -64 181 -64q60 0 123 34q178 96 178 402q0 310 -168 405q-60 34 -120 34q-85 0 -128 -56q-4 -6 -52 -105q-27 -56 -74 -56q-81 0 -81 81q0 85 131 143q108 48 207 48q198 0 333 -152q129 -146 129 -347 q0 -196 -131 -338q-134 -147 -328 -147q-223 0 -329 203q-27 52 -27 75zM301 466q0 46 32 78t78 32t78 -32t32 -78t-32 -78t-78 -32t-78 32t-32 78z" />
<glyph unicode="&#x37e;" horiz-adv-x="536" d="M160 102q0 44 29 73t74 29q107 0 107 -198q0 -209 -124 -349q-25 -29 -36 -29q-19 0 -19 21q0 9 13 26q124 152 123 347l-2 -2q-18 -14 -47 -18q-3 -2 -11 -2q-107 0 -107 102zM160 729q0 41 30.5 72t72.5 31q41 0 71.5 -31t30.5 -72q0 -42 -30.5 -72t-71.5 -30 q-42 0 -72.5 30t-30.5 72z" />
<glyph unicode="&#x386;" horiz-adv-x="1484" d="M68 0v61q174 2 219 133l409 1177q14 40 46 40t46 -40l425 -1231q21 -61 84 -75q25 -6 120 -4v-61q-127 6 -355 6q-113 0 -187 -6v61q162 -1 162 59q0 29 -47 159q-31 84 -62 169h-487l-56 -146q-39 -107 -39 -140q0 -51 52 -78q42 -23 97 -23v-61q-189 6 -228 6 q-62 0 -199 -6zM80 1022q0 11 8 33l100 278q13 36 60 36q70 0 70 -45q0 -20 -17 -48l-144 -237q-25 -41 -46 -41q-31 0 -31 24zM464 510h442l-222 641z" />
<glyph unicode="&#x388;" horiz-adv-x="1764" d="M0 1022q0 11 8 33l100 278q13 36 60 36q70 0 70 -45q0 -20 -17 -48l-144 -237q-25 -41 -46 -41q-31 0 -31 24zM478 0v61q47 -1 53 -1q125 0 142 38q7 16 7 48v1053q0 30 -7 47q-17 41 -195 35v62h1108l56 -442h-49q-24 218 -95 294q-80 86 -293 86h-263q-54 0 -69 -12 q-19 -15 -19 -67v-474h178q134 0 176 49q37 44 37 180h51v-521h-51q0 136 -38 180q-42 50 -175 50h-178v-526q0 -52 19 -67q15 -12 69 -12h273q236 0 326 111q67 84 107 336h49l-84 -508h-1135z" />
<glyph unicode="&#x389;" horiz-adv-x="1890" d="M0 1022q0 11 8 33l100 278q13 36 60 36q70 0 70 -45q0 -20 -17 -48l-144 -237q-25 -41 -46 -41q-31 0 -31 24zM478 0v61q9 0 28 -1h28q121 0 139 36q7 14 7 45v1064q0 31 -7 45q-17 34 -149 34h-46v62q70 -6 112 -6h354q45 0 115 6v-62q-9 0 -27.5 1t-27.5 1 q-123 0 -142 -36q-8 -16 -8 -45v-474h590v474q0 29 -8 45q-17 34 -148 34h-46v62q70 -6 112 -6h356q43 0 113 6v-62q-9 0 -27.5 1t-28.5 1q-122 0 -140 -36q-8 -16 -8 -45v-1064q0 -29 8 -45q18 -36 196 -35v-61q-71 6 -113 6h-361q-36 0 -107 -6v61q9 0 29 -1h28 q119 0 137 36q8 16 8 45v530h-590v-530q0 -29 8 -45q18 -36 197 -35v-61q-71 6 -115 6h-358q-37 0 -108 -6z" />
<glyph unicode="&#x38a;" horiz-adv-x="1146" d="M0 1022q0 11 8 33l100 278q13 36 60 36q70 0 70 -45q0 -20 -17 -48l-144 -237q-25 -41 -46 -41q-31 0 -31 24zM478 0v61q8 0 29 -1h28q128 0 147 36q9 17 9 49v1056q0 32 -9 49q-18 34 -153 34h-51v62q71 -6 115 -6h376q41 0 111 6v-62q-10 0 -29.5 1t-29.5 1 q-75 0 -103 -9q-53 -18 -53 -76v-1057q0 -27 11 -48q16 -29 94 -35h110v-61q-71 6 -117 6h-373q-41 0 -112 -6z" />
<glyph unicode="&#x38c;" horiz-adv-x="1755" d="M0 1022q0 11 8 33l100 278q13 36 60 36q70 0 70 -45q0 -20 -17 -48l-144 -237q-25 -41 -46 -41q-31 0 -31 24zM378 669q0 285 182 498q191 223 472 223q282 0 473 -223q182 -212 182 -498q0 -285 -183 -494q-192 -218 -472 -218t-471 219q-183 209 -183 493zM580 696 q0 -469 265 -632q91 -56 189 -56q90 0 184 55q267 156 267 633q0 438 -260 590q-92 54 -193 54q-99 0 -190 -53q-262 -153 -262 -591z" />
<glyph unicode="&#x38e;" horiz-adv-x="1835" d="M0 1022q0 11 8 33l100 278q13 36 60 36q70 0 70 -45q0 -20 -17 -48l-144 -237q-25 -41 -46 -41q-31 0 -31 24zM458 1068q0 116 69 206q75 96 188 96q174 0 282 -159q84 -124 115 -319h2q30 194 115 319q108 159 280 159q113 0 188 -96q70 -90 70 -206q0 -33 -31 -33 q-23 0 -31 30q-4 24 -9 48q-16 49 -76 79q-53 27 -109 27q-171 0 -252 -200q-59 -145 -59 -346v-529q0 -29 7 -44q22 -46 245 -39v-61q-76 6 -159 6h-362q-83 0 -159 -6v61l75 -1q147 0 170 41q8 14 8 42v530q0 201 -59 347q-82 199 -253 199q-55 0 -105 -25 q-57 -28 -74 -75q-6 -26 -13 -51q-10 -33 -33 -33q-30 0 -30 33z" />
<glyph unicode="&#x38f;" horiz-adv-x="1692" d="M0 1022q0 11 8 33l100 278q13 36 60 36q70 0 70 -45q0 -20 -17 -48l-144 -237q-25 -41 -46 -41q-31 0 -31 24zM378 320h48q17 -115 35.5 -146t38.5 -39q15 -7 56 -7h194q-27 111 -120 256q-144 223 -153 240q-76 141 -76 272q0 221 194 364q177 130 406 130t405 -130 q194 -143 194 -364q0 -131 -76 -272q-9 -18 -153 -240q-93 -145 -120 -256h195q41 0 56 7q19 8 38 40q18 29 35 145h49l-64 -320h-327q-25 0 -31.5 7t-6.5 33q0 150 101 429t101 429q0 186 -103 312q-111 136 -293 136t-293 -136q-103 -126 -103 -312q0 -150 101 -429 t101 -429q0 -40 -39 -40h-326z" />
<glyph unicode="&#x390;" horiz-adv-x="748" d="M0 1233q0 40 30.5 70t70.5 30q42 0 71.5 -29t29.5 -71t-29.5 -72t-71.5 -30q-41 0 -71 30.5t-30 71.5zM52 856v67l299 23v-685q0 -231 148 -231q102 0 131 139q14 64 12 219h53v-122q0 -114 -48 -194q-58 -96 -164 -96q-133 0 -204 80q-69 76 -69 210v473q0 86 -41 106 q-22 12 -117 11zM246 1259q0 11 8 33l100 278q13 36 60 36q70 0 70 -45q0 -20 -17 -48l-144 -237q-25 -41 -46 -41q-31 0 -31 24zM373 1233q0 40 30 70t70 30q42 0 71.5 -29t29.5 -71t-29.5 -72t-71.5 -30q-41 0 -70.5 30.5t-29.5 71.5z" />
<glyph unicode="&#x391;" horiz-adv-x="1484" d="M68 0v61q174 2 219 133l409 1177q14 40 46 40t46 -40l425 -1231q21 -61 84 -75q25 -6 120 -4v-61q-127 6 -355 6q-113 0 -187 -6v61q162 -1 162 59q0 29 -47 159q-31 84 -62 169h-487l-56 -146q-39 -107 -39 -140q0 -51 52 -78q42 -23 97 -23v-61q-189 6 -228 6 q-62 0 -199 -6zM464 510h442l-222 641z" />
<glyph unicode="&#x392;" horiz-adv-x="1346" d="M68 0v61q62 -2 63 -2q113 0 134 45q5 11 5 42v1051q0 31 -5 42q-22 50 -197 42v62h720q161 0 290 -83q148 -95 148 -247q0 -120 -106 -209q-91 -77 -220 -102q147 -16 256 -104q122 -98 122 -238q0 -161 -142 -266q-129 -94 -296 -94h-772zM434 140q0 -53 19 -68 q14 -11 67 -11h257q129 0 217 86t88 215q0 127 -74 218q-79 97 -203 97h-371v-537zM434 721h286q129 0 220 80q94 84 94 212q0 113 -73 190.5t-186 77.5h-255q-53 0 -67 -11q-19 -15 -19 -68v-481z" />
<glyph unicode="&#x393;" horiz-adv-x="1216" d="M68 0v61q8 0 27 -1h27q124 0 141 38q7 15 7 48v1053q0 31 -7 47q-16 38 -195 35v62h1026l55 -442h-49q-24 212 -82 285q-74 95 -274 95h-214q-51 0 -66 -12q-20 -14 -20 -67v-1065q0 -22 8 -39q18 -39 245 -37v-61q-74 6 -120 6h-382q-55 0 -127 -6z" />
<glyph unicode="&#x394;" horiz-adv-x="1202" d="M68 15q0 7 130 373l319 898q10 30 33 89q16 36 51 36q37 0 50 -36l473 -1337q11 -31 11 -23q0 -15 -24 -15h-1021q-22 0 -22 15zM180 149h738l-369 1046z" />
<glyph unicode="&#x395;" horiz-adv-x="1354" d="M68 0v61q47 -1 53 -1q125 0 142 38q7 16 7 48v1053q0 30 -7 47q-17 41 -195 35v62h1108l56 -442h-49q-24 218 -95 294q-80 86 -293 86h-263q-54 0 -69 -12q-19 -15 -19 -67v-474h178q134 0 176 49q37 44 37 180h51v-521h-51q0 136 -38 180q-42 50 -175 50h-178v-526 q0 -52 19 -67q15 -12 69 -12h273q236 0 326 111q67 84 107 336h49l-84 -508h-1135z" />
<glyph unicode="&#x396;" horiz-adv-x="1128" d="M68 33q0 21 13 41l766 1207h-310q-206 0 -294 -87.5t-100 -293.5h-51l22 443h900q34 0 34 -32q0 -16 -14 -38l-764 -1205h324q239 0 329 114q76 95 89 344h49l-35 -526h-925q-33 0 -33 33z" />
<glyph unicode="&#x397;" horiz-adv-x="1480" d="M68 0v61q9 0 28 -1h28q121 0 139 36q7 14 7 45v1064q0 31 -7 45q-17 34 -149 34h-46v62q70 -6 112 -6h354q45 0 115 6v-62q-9 0 -27.5 1t-27.5 1q-123 0 -142 -36q-8 -16 -8 -45v-474h590v474q0 29 -8 45q-17 34 -148 34h-46v62q70 -6 112 -6h356q43 0 113 6v-62 q-9 0 -27.5 1t-28.5 1q-122 0 -140 -36q-8 -16 -8 -45v-1064q0 -29 8 -45q18 -36 196 -35v-61q-71 6 -113 6h-361q-36 0 -107 -6v61q9 0 29 -1h28q119 0 137 36q8 16 8 45v530h-590v-530q0 -29 8 -45q18 -36 197 -35v-61q-71 6 -115 6h-358q-37 0 -108 -6z" />
<glyph unicode="&#x398;" horiz-adv-x="1445" d="M68 669q0 285 182 498q191 223 472 223q282 0 473 -223q182 -212 182 -498q0 -285 -183 -494q-192 -218 -472 -218t-471 219q-183 209 -183 493zM270 696q0 -469 265 -632q91 -56 189 -56q90 0 184 55q267 156 267 633q0 438 -260 590q-92 54 -193 54q-99 0 -190 -53 q-262 -153 -262 -591zM391 532v284h49v-68h564v68h50v-284h-50v68h-564v-68h-49z" />
<glyph unicode="&#x399;" horiz-adv-x="736" d="M68 0v61q8 0 29 -1h28q128 0 147 36q9 17 9 49v1056q0 32 -9 49q-18 34 -153 34h-51v62q71 -6 115 -6h376q41 0 111 6v-62q-10 0 -29.5 1t-29.5 1q-75 0 -103 -9q-53 -18 -53 -76v-1057q0 -27 11 -48q16 -29 94 -35h110v-61q-71 6 -117 6h-373q-41 0 -112 -6z" />
<glyph unicode="&#x39a;" horiz-adv-x="1519" d="M68 0v61q8 0 28 -1h27q125 0 141 40q6 15 6 44v1066q0 27 -7 41q-17 35 -195 33v62q70 -6 119 -6h342q50 0 120 6v-62q-9 0 -28 1t-29 1q-126 0 -142 -40q-6 -15 -6 -44v-636l618 588q36 34 36 67q0 61 -91 63v62q69 -6 180 -6q186 0 239 6v-62q-160 -2 -281 -118 l-356 -340l456 -670q42 -62 89 -81q36 -14 117 -14v-61q-127 6 -324 6q-112 0 -183 -6v61q117 -1 117 59q0 22 -31 68l-357 528l-229 -218v-359q0 -28 9 -45q18 -34 196 -33v-61q-71 6 -120 6h-347q-43 0 -114 -6z" />
<glyph unicode="&#x39b;" horiz-adv-x="1374" d="M68 0v61q151 -1 195 136l380 1172q14 42 45 42t45 -42l394 -1223q6 -20 25 -56q27 -31 156 -29v-61q-235 6 -345 6t-182 -6v61q166 -1 166 59q0 16 -59 199l-262 806l-296 -919q-9 -28 -9 -42q0 -51 53 -79q42 -23 99 -24v-61q-183 6 -223 6q-82 0 -182 -6z" />
<glyph unicode="&#x39c;" horiz-adv-x="1793" d="M68 0v61q202 -1 202 140v1003q0 22 -6 38q-12 32 -89 39q-11 1 -107 0v62h341q45 0 61 -42l428 -1102l430 1108q14 36 49 36h349v-62q-9 0 -27.5 1t-28.5 1q-125 0 -141 -41q-6 -15 -6 -45v-1058q0 -26 8 -43q17 -36 195 -35v-61q-75 6 -119 6h-334q-38 0 -113 -6v61h76 q63 0 87 10q40 17 40 70v1140h-2l-483 -1245q-14 -36 -36 -36t-39 43l-476 1222h-2v-1064q0 -141 203 -140v-61q-209 6 -230 6q-19 0 -230 -6z" />
<glyph unicode="&#x39d;" horiz-adv-x="1480" d="M68 0v61q202 -1 202 140v1032q0 29 -8.5 35t-39.5 9q-45 4 -154 4v62h342q30 0 48 -26l696 -1019v847q0 139 -203 139v62q205 -6 232 -6q26 0 230 6v-62q-204 1 -204 -145v-1107q0 -32 -26 -32q-16 0 -34 26l-805 1178q-12 17 -19 25v-1028q0 -141 203 -140v-61 q-208 6 -230 6t-230 -6z" />
<glyph unicode="&#x39e;" horiz-adv-x="1282" d="M68 329h48q2 -56 6 -90q6 -69 19 -81q20 -20 115 -20h771q93 0 114 22q16 17 24 169h49l-16 -329h-1115zM78 1035l15 308h1096l15 -308h-49q-2 50 -6 81q-6 62 -18 73q-17 16 -107 16h-765q-93 0 -110.5 -16.5t-23.5 -153.5h-47zM260 524v338h49v-99h664v99h49v-338h-49 v100h-664v-100h-49z" />
<glyph unicode="&#x39f;" horiz-adv-x="1445" d="M68 669q0 285 182 498q191 223 472 223q282 0 473 -223q182 -212 182 -498q0 -285 -183 -494q-192 -218 -472 -218t-471 219q-183 209 -183 493zM270 696q0 -469 265 -632q91 -56 189 -56q90 0 184 55q267 156 267 633q0 438 -260 590q-92 54 -193 54q-99 0 -190 -53 q-262 -153 -262 -591z" />
<glyph unicode="&#x3a0;" horiz-adv-x="1480" d="M68 0v61h78q60 0 85 11q39 17 39 69v1062q0 26 -6 41q-13 32 -89 38h-107v62h1345v-62q-10 0 -31 1h-30q-121 0 -137 -39q-6 -14 -6 -41v-1062q0 -25 6 -41q13 -32 90 -39q13 -1 108 0v-61q-71 6 -106 6h-375q-29 0 -100 -6v61h78q60 0 85 11q39 17 39 69v1141h-590 v-1141q0 -26 6 -41q13 -32 91 -39q12 -1 108 0v-61q-71 6 -106 6h-374q-30 0 -101 -6z" />
<glyph unicode="&#x3a1;" horiz-adv-x="1295" d="M68 0v61q73 -1 55 -1q122 0 140 38q7 15 7 48v1051q0 32 -7 48q-18 41 -195 36v62h695q174 0 311 -94q154 -106 154 -272q0 -158 -149 -263q-135 -95 -300 -95h-335v-473q0 -32 7 -48q18 -39 198 -37v-61q-72 6 -133 6h-326q-50 0 -122 -6zM439 670h272q313 0 313 307 q0 161 -75.5 232.5t-237.5 71.5h-186q-53 0 -67 -12q-19 -14 -19 -67v-532z" />
<glyph unicode="&#x3a3;" horiz-adv-x="1335" d="M68 1310q0 33 41 33h1103l54 -443h-47q-30 235 -137 313q-93 68 -338 68h-455l405 -532q13 -17 13 -27q0 -9 -17 -31l-480 -608h529q244 0 342 69q114 81 138 314h47l-54 -466h-1106q-36 0 -36 22q0 9 18 32l470 596z" />
<glyph unicode="&#x3a4;" horiz-adv-x="1413" d="M68 901l36 442h1206l36 -442h-49q-22 262 -88.5 321.5t-330.5 59.5q-46 0 -62 -9q-23 -14 -23 -56v-1071q0 -25 10 -47q19 -41 277 -38v-61q-84 6 -154 6h-439q-71 0 -155 -6v61q9 0 38 -1h38q184 0 202 39q8 17 8 47v1072q0 43 -29 56q-17 8 -66 8q-256 0 -321 -62.5 t-86 -318.5h-48z" />
<glyph unicode="&#x3a5;" horiz-adv-x="1445" d="M68 1068q0 116 69 206q75 96 188 96q174 0 282 -159q84 -124 115 -319h2q30 194 115 319q108 159 280 159q113 0 188 -96q70 -90 70 -206q0 -33 -31 -33q-23 0 -31 30q-4 24 -9 48q-16 49 -76 79q-53 27 -109 27q-171 0 -252 -200q-59 -145 -59 -346v-529q0 -29 7 -44 q22 -46 245 -39v-61q-76 6 -159 6h-362q-83 0 -159 -6v61l75 -1q147 0 170 41q8 14 8 42v530q0 201 -59 347q-82 199 -253 199q-55 0 -105 -25q-57 -28 -74 -75q-6 -26 -13 -51q-10 -33 -33 -33q-30 0 -30 33z" />
<glyph unicode="&#x3a6;" horiz-adv-x="1394" d="M68 674q0 182 181 300q152 99 361 121v99q0 37 -7 54q-17 41 -246 39v62q75 -6 155 -6h359q79 0 154 6v-62q-12 0 -39.5 1t-42.5 1q-135 0 -157 -37q-14 -23 -14 -76v-81q215 -21 368 -118q186 -118 186 -304t-186 -303q-153 -97 -368 -117v-97q0 -39 7 -56 q18 -44 246 -39v-61q-75 6 -154 6h-359q-80 0 -155 -6v61q12 0 39 -1t42 -1q136 0 158 37q14 23 14 75v82q-210 21 -361 120q-181 118 -181 301zM263 673q0 -334 347 -374v751q-347 -40 -347 -377zM772 297q164 13 259 108q99 99 99 269q0 339 -358 376v-753z" />
<glyph unicode="&#x3a7;" horiz-adv-x="1518" d="M68 0v61q196 0 285 131l323 477l-362 547q-34 51 -99 64q-32 6 -122 4v62q112 -6 298 -6q175 0 246 6v-62q-128 -5 -128 -58q0 -13 268 -410l225 333q17 25 17 46q0 43 -41 67q-34 21 -80 22v62q81 -6 222 -6q24 0 248 6v-62q-198 -2 -285 -128l-271 -395l416 -629 q35 -53 99 -66q32 -7 123 -5v-61q-127 6 -360 6q-111 0 -183 -6v61q128 5 128 59q0 10 -320 493l-281 -414q-19 -28 -19 -48q0 -43 42 -68q35 -21 81 -22v-61q-74 6 -191 6q-65 0 -279 -6z" />
<glyph unicode="&#x3a8;" horiz-adv-x="1441" d="M68 1070q0 22 35 22h87q106 0 146 -92q24 -57 29 -184q7 -198 50 -303q62 -156 218 -197v890q0 25 -7 42q-17 41 -246 39v62q74 -6 143 -6h382q69 0 143 6v-62q-9 0 -30.5 1t-32.5 1q-162 0 -182 -42q-8 -17 -8 -41v-890q263 63 281 475q5 114 15 162q23 101 84 127 q35 15 123 15q75 0 75 -25q0 -14 -25 -22q-108 -34 -108 -220q0 -508 -445 -563v-125q0 -22 8 -40q20 -43 245 -39v-61q-74 6 -143 6h-382q-69 0 -143 -6v61q12 0 42 -1q26 -1 41 -1q140 0 160 40q11 22 11 62v52q-1 40 -1 52q-402 52 -432 516q-9 132 -9 136 q-13 93 -53 114q-21 7 -42 13q-29 11 -29 26z" />
<glyph unicode="&#x3a9;" horiz-adv-x="1382" d="M68 320h48q17 -115 35.5 -146t38.5 -39q15 -7 56 -7h194q-27 111 -120 256q-144 223 -153 240q-76 141 -76 272q0 221 194 364q177 130 406 130t405 -130q194 -143 194 -364q0 -131 -76 -272q-9 -18 -153 -240q-93 -145 -120 -256h195q41 0 56 7q19 8 38 40q18 29 35 145 h49l-64 -320h-327q-25 0 -31.5 7t-6.5 33q0 150 101 429t101 429q0 186 -103 312q-111 136 -293 136t-293 -136q-103 -126 -103 -312q0 -150 101 -429t101 -429q0 -40 -39 -40h-326z" />
<glyph unicode="&#x3aa;" horiz-adv-x="736" d="M67 1496q0 44 33.5 77t77.5 33q47 0 79 -32t32 -78q0 -47 -32 -79.5t-79 -32.5q-45 0 -78 33.5t-33 78.5zM68 0v61q8 0 29 -1h28q128 0 147 36q9 17 9 49v1056q0 32 -9 49q-18 34 -153 34h-51v62q71 -6 115 -6h376q41 0 111 6v-62q-10 0 -29.5 1t-29.5 1q-75 0 -103 -9 q-53 -18 -53 -76v-1057q0 -27 11 -48q16 -29 94 -35h110v-61q-71 6 -117 6h-373q-41 0 -112 -6zM439 1496q0 44 33.5 77t77.5 33q47 0 79 -32t32 -78q0 -47 -32 -79.5t-79 -32.5q-45 0 -78 33.5t-33 78.5z" />
<glyph unicode="&#x3ab;" horiz-adv-x="1445" d="M68 1068q0 116 69 206q75 96 188 96q174 0 282 -159q84 -124 115 -319h2q30 194 115 319q108 159 280 159q113 0 188 -96q70 -90 70 -206q0 -33 -31 -33q-23 0 -31 30q-4 24 -9 48q-16 49 -76 79q-53 27 -109 27q-171 0 -252 -200q-59 -145 -59 -346v-529q0 -29 7 -44 q22 -46 245 -39v-61q-76 6 -159 6h-362q-83 0 -159 -6v61l75 -1q147 0 170 41q8 14 8 42v530q0 201 -59 347q-82 199 -253 199q-55 0 -105 -25q-57 -28 -74 -75q-6 -26 -13 -51q-10 -33 -33 -33q-30 0 -30 33zM439 1496q0 44 33.5 77t77.5 33q47 0 79 -32t32 -78 q0 -47 -32 -79.5t-79 -32.5q-45 0 -78 33.5t-33 78.5zM811 1496q0 44 33.5 77t77.5 33q47 0 79 -32t32 -78q0 -47 -32 -79.5t-79 -32.5q-45 0 -78 33.5t-33 78.5z" />
<glyph unicode="&#x3ac;" horiz-adv-x="1228" d="M53 459q0 197 138 342t334 145q92 0 171 -55q76 -53 116 -139l81 194h47v-788q0 -39 20 -71q23 -37 60 -37q78 0 78 171q0 -9 -2 86h55v-120q0 -84 -45 -141q-50 -62 -131 -62q-139 0 -165 167q-137 -175 -301 -175q-192 0 -326 147q-130 142 -130 336zM230 459 q0 -152 66 -280q81 -155 219 -155q104 0 194 82t90 185v301q0 112 -73 203q-79 98 -188 98q-96 0 -175 -77q-69 -67 -103 -167q-30 -87 -30 -190zM510 1155q0 11 8 33l100 278q13 36 60 36q70 0 70 -45q0 -20 -17 -48l-144 -237q-25 -41 -46 -41q-31 0 -31 24z" />
<glyph unicode="&#x3ad;" horiz-adv-x="883" d="M62 248q0 99 81 167q67 57 172 81q-93 22 -151 81q-64 65 -64 156q0 123 132 182q98 45 239 45q105 0 192 -28q123 -40 123 -122q0 -33 -24.5 -55.5t-57.5 -22.5q-39 0 -70 47q-52 77 -61 86q-47 47 -126 47q-202 0 -202 -194q0 -188 199 -188q22 0 63 11t63 11 q86 0 86 -56q0 -55 -87 -55q-21 0 -62.5 11t-62.5 11q-224 0 -224 -205q0 -228 255 -228q204 0 290 221q11 29 27 29q28 0 28 -25q0 -32 -34 -90q-110 -189 -326 -189q-148 0 -260 61q-138 75 -138 211zM390 1155q0 11 8 33l100 278q13 36 60 36q70 0 70 -45q0 -20 -17 -48 l-144 -237q-25 -41 -46 -41q-31 0 -31 24z" />
<glyph unicode="&#x3ae;" horiz-adv-x="1098" d="M52 629v120q0 84 45 141q49 62 131 62q84 0 129 -69q40 -59 40 -147q101 224 317 224q293 0 293 -317v-45q-1 -29 -1 -44v-659q0 -140 40 -323h-148q-40 135 -40 347v757q0 237 -158 237q-129 0 -212 -104q-77 -97 -77 -229v-580h-149v778q0 39 -19 71q-23 37 -60 37 q-78 0 -78 -172q0 -8 2 -85h-55zM520 1155q0 11 8 33l100 278q13 36 60 36q70 0 70 -45q0 -20 -17 -48l-144 -237q-25 -41 -46 -41q-31 0 -31 24z" />
<glyph unicode="&#x3af;" horiz-adv-x="748" d="M52 856v67l299 23v-685q0 -231 148 -231q102 0 131 139q14 64 12 219h53v-122q0 -114 -48 -194q-58 -96 -164 -96q-133 0 -204 80q-69 76 -69 210v473q0 86 -41 106q-22 12 -117 11zM170 1155q0 11 8 33l100 278q13 36 60 36q70 0 70 -45q0 -20 -17 -48l-144 -237 q-25 -41 -46 -41q-31 0 -31 24z" />
<glyph unicode="&#x3b0;" horiz-adv-x="1103" d="M52 629v120q0 84 45 141q49 62 131 62q88 0 138 -66q45 -59 45 -150v-357q0 -355 223 -355q159 0 241 173q64 134 64 313q0 328 -233 410l5 32q160 -18 255 -160q85 -127 85 -296q0 -211 -106 -357q-119 -163 -322 -163q-178 0 -271 103q-90 98 -90 278v421q0 39 -19 71 q-23 37 -60 37q-79 0 -79 -173q0 -6 3 -84h-55zM280 1233q0 40 30.5 70t70.5 30q42 0 71.5 -29t29.5 -71t-29.5 -72t-71.5 -30q-41 0 -71 30.5t-30 71.5zM526 1259q0 11 8 33l100 278q13 36 60 36q70 0 70 -45q0 -20 -17 -48l-144 -237q-25 -41 -46 -41q-31 0 -31 24z M653 1233q0 40 30 70t70 30q42 0 71.5 -29t29.5 -71t-29.5 -72t-71.5 -30q-41 0 -70.5 30.5t-29.5 71.5z" />
<glyph unicode="&#x3b1;" horiz-adv-x="1228" d="M53 459q0 197 138 342t334 145q92 0 171 -55q76 -53 116 -139l81 194h47v-788q0 -39 20 -71q23 -37 60 -37q78 0 78 171q0 -9 -2 86h55v-120q0 -84 -45 -141q-50 -62 -131 -62q-139 0 -165 167q-137 -175 -301 -175q-192 0 -326 147q-130 142 -130 336zM230 459 q0 -152 66 -280q81 -155 219 -155q104 0 194 82t90 185v301q0 112 -73 203q-79 98 -188 98q-96 0 -175 -77q-69 -67 -103 -167q-30 -87 -30 -190z" />
<glyph unicode="&#x3b2;" horiz-adv-x="951" d="M52 -417q37 173 37 311v1110q0 467 361 467q157 0 255 -86q103 -90 103 -244q0 -183 -193 -308q283 -133 283 -406q0 -200 -127 -328q-122 -123 -272 -123q-131 0 -263 113q0 -22 1 -77v-77q0 -221 -37 -352h-148zM236 233q0 -48 58 -119q74 -90 184 -90q126 0 193 109 q57 92 57 226q0 113 -43 240q-49 143 -123 206q-56 -27 -110 -27q-31 0 -65 15q-42 18 -42 44q0 47 87 47q54 0 131 -30q88 103 88 292q0 277 -211 277q-204 0 -204 -345v-845z" />
<glyph unicode="&#x3b3;" horiz-adv-x="934" d="M50 636v14q0 273 146 273q129 0 231 -307q18 -55 106 -423q147 307 174 509q13 97 25 133q27 88 82 88q70 0 70 -76q0 -109 -133 -365q-100 -179 -201 -358q37 -229 37 -391q0 -146 -78 -146q-82 0 -82 153q0 175 68 392q-44 204 -111 379q-107 280 -211 280 q-76 0 -88 -155h-35z" />
<glyph unicode="&#x3b4;" horiz-adv-x="929" d="M52 403q0 183 122 313q118 125 302 152q-35 39 -138 121q-91 73 -129 124q-56 77 -56 173q0 97 116 153q92 44 201 44q121 0 214 -54q113 -64 113 -176q0 -101 -98 -101q-43 0 -71 28t-28 71q0 95 101 99q-80 78 -229 78q-80 0 -140 -31q-74 -38 -74 -111 q0 -102 160 -227q271 -210 298 -238q160 -165 160 -362q0 -186 -128 -332q-133 -151 -317 -151q-177 0 -282 127q-97 119 -97 300zM201 423q0 -152 59 -259q73 -134 212 -134q132 0 202 125q56 101 56 244q0 187 -210 421q-153 -24 -238 -134q-81 -105 -81 -263z" />
<glyph unicode="&#x3b5;" horiz-adv-x="883" d="M62 248q0 99 81 167q67 57 172 81q-93 22 -151 81q-64 65 -64 156q0 123 132 182q98 45 239 45q105 0 192 -28q123 -40 123 -122q0 -33 -24.5 -55.5t-57.5 -22.5q-39 0 -70 47q-52 77 -61 86q-47 47 -126 47q-202 0 -202 -194q0 -188 199 -188q22 0 63 11t63 11 q86 0 86 -56q0 -55 -87 -55q-21 0 -62.5 11t-62.5 11q-224 0 -224 -205q0 -228 255 -228q204 0 290 221q11 29 27 29q28 0 28 -25q0 -32 -34 -90q-110 -189 -326 -189q-148 0 -260 61q-138 75 -138 211z" />
<glyph unicode="&#x3b6;" horiz-adv-x="835" d="M52 419q0 400 284 723q-190 -2 -190 148q0 118 174 167l16 -37q-104 -45 -104 -123q0 -51 34.5 -83.5t85.5 -32.5q11 0 23 2q56 64 168 139q127 86 192 86q48 0 48 -38q0 -86 -148 -158q-108 -53 -225 -73q-145 -134 -224 -332q-75 -189 -75 -395q0 -153 68.5 -219.5 t222.5 -66.5q34 0 101 4t101 4q97 0 161 -67.5t64 -165.5q0 -147 -85 -241q-88 -98 -233 -98q-137 0 -137 88q0 71 75 71q28 0 82.5 -14.5t82.5 -14.5q61 0 103 50q40 47 40 109q0 54 -40.5 96t-94.5 42q-31 0 -92.5 -6.5t-92.5 -6.5q-385 0 -385 443z" />
<glyph unicode="&#x3b7;" horiz-adv-x="1098" d="M52 629v120q0 84 45 141q49 62 131 62q84 0 129 -69q40 -59 40 -147q101 224 317 224q293 0 293 -317v-45q-1 -29 -1 -44v-659q0 -140 40 -323h-148q-40 135 -40 347v757q0 237 -158 237q-129 0 -212 -104q-77 -97 -77 -229v-580h-149v778q0 39 -19 71q-23 37 -60 37 q-78 0 -78 -172q0 -8 2 -85h-55z" />
<glyph unicode="&#x3b8;" horiz-adv-x="980" d="M52 724q0 265 91 481q120 284 347 284q226 0 346 -284q92 -217 92 -481q0 -257 -94 -471q-121 -277 -344 -277q-222 0 -344 277q-94 215 -94 471zM212 703q2 -217 53 -402q75 -271 225 -271q151 0 225 271q51 184 53 402h-556zM212 771h556q-2 216 -53 397 q-74 267 -225 267q-150 0 -225 -267q-51 -182 -53 -397z" />
<glyph unicode="&#x3b9;" horiz-adv-x="748" d="M52 856v67l299 23v-685q0 -231 148 -231q102 0 131 139q14 64 12 219h53v-122q0 -114 -48 -194q-58 -96 -164 -96q-133 0 -204 80q-69 76 -69 210v473q0 86 -41 106q-22 12 -117 11z" />
<glyph unicode="&#x3ba;" horiz-adv-x="1140" d="M52 856v67l309 23v-488l380 330q155 135 233 135q100 0 100 -98q0 -38 -30.5 -66.5t-69.5 -28.5q-28 0 -55.5 29t-54.5 29q-45 0 -266 -193q2 -20 10 -31l271 -384q47 -67 88.5 -90.5t120.5 -23.5v-66h-241l-356 502l-137 -118v-384h-134v737q0 88 -45 109 q-23 11 -123 10z" />
<glyph unicode="&#x3bb;" horiz-adv-x="1043" d="M52 0l377 916q-22 83 -68 249q-54 188 -181 188q-80 0 -92 -161h-36v15q0 283 152 283t241 -325l237 -864q52 -188 181 -188q79 0 92 161h35v-15q0 -283 -151 -283q-152 0 -242 325l-108 392l-287 -693h-150z" />
<glyph unicode="&#x3bc;" horiz-adv-x="1120" d="M52 -417q37 173 37 311v1029h147v-663q0 -237 159 -237q129 0 212 105q77 97 77 229v566h148v-765q0 -39 20 -71q23 -37 60 -37q78 0 78 171q0 -9 -2 86h55v-120q0 -84 -45 -141q-50 -62 -131 -62q-84 0 -129 69q-40 60 -40 148q-101 -225 -317 -225q-83 0 -144 25v-66 q0 -221 -37 -352h-148z" />
<glyph unicode="&#x3bd;" horiz-adv-x="1031" d="M52 823v49q83 1 195 88h30q55 -105 97 -221l208 -573l199 365q41 75 41 125q0 35 -16.5 103t-16.5 103q0 98 103 98q36 0 61.5 -26.5t25.5 -62.5q0 -93 -83 -247l-327 -607q-22 -41 -41 -41q-25 0 -40 41l-234 640q-48 131 -86 152q-25 14 -116 14z" />
<glyph unicode="&#x3be;" horiz-adv-x="936" d="M52 341q0 263 252 437q-116 85 -116 196q0 97 97 201q-156 36 -156 151q0 116 175 124v-33q-104 -13 -104 -89q0 -96 129 -105q202 179 327 179q44 0 44 -44q0 -82 -135 -132q-102 -38 -206 -41q-111 -109 -111 -205q0 -105 122 -174q62 36 161 62t172 26q28 0 57 -13 q35 -16 35 -40q0 -49 -96 -74q-66 -17 -141 -17q-79 0 -184 17q-256 -184 -256 -394q0 -124 92 -191q81 -59 210 -59q44 0 131 6t131 6q106 0 172 -61.5t66 -166.5q0 -138 -84 -239q-89 -108 -224 -108q-47 0 -91 21q-55 26 -55 68q0 25 22.5 46t47.5 21q27 0 79.5 -15 t79.5 -15q75 0 117.5 45.5t42.5 120.5q0 53 -38 94.5t-91 41.5q-37 0 -112 -6t-112 -6q-192 0 -312 84q-138 97 -138 281z" />
<glyph unicode="&#x3bf;" horiz-adv-x="998" d="M52 459q0 199 123 346q130 155 325 155q194 0 322 -141q123 -136 123 -333q0 -206 -124 -354q-131 -156 -333 -156q-192 0 -317 148q-119 139 -119 335zM215 548q0 -186 67 -331q87 -187 251 -187q249 0 249 376q0 187 -65 326q-84 180 -250 180q-135 0 -200 -121 q-52 -96 -52 -243z" />
<glyph unicode="&#x3c0;" horiz-adv-x="1134" d="M50 757q0 39 60 100q67 66 168 66h806v-100h-267v-162q0 -366 108 -563q21 -38 21 -53q0 -66 -81 -66q-80 0 -117 197q-24 127 -24 272v375h-228l-80 -704q-16 -140 -92 -140q-73 0 -73 62q0 11 10 41q102 311 168 741h-191q-57 0 -118.5 -41t-53.5 -41q-16 0 -16 16z " />
<glyph unicode="&#x3c1;" horiz-adv-x="990" d="M52 -417q37 173 37 311v589q0 209 95 335q107 142 309 142q194 0 322 -141q123 -136 123 -333q0 -206 -124 -354q-131 -156 -333 -156q-145 0 -245 113q0 -23 1 -82v-82q0 -214 -36 -342h-149zM236 286q0 -110 92 -185q86 -71 198 -71q249 0 249 376q0 187 -65 326 q-84 180 -250 180q-108 0 -170 -90q-54 -79 -54 -192v-344z" />
<glyph unicode="&#x3c2;" horiz-adv-x="905" d="M53 461q0 200 130 347q134 152 332 152q99 0 207 -48q131 -58 131 -143q0 -35 -23 -58t-58 -23q-47 0 -74 56q-48 99 -52 105q-43 56 -128 56q-60 0 -120 -34q-168 -95 -168 -405q0 -109 58 -216q68 -126 168 -126q20 0 60 3t60 3q106 0 169.5 -62.5t63.5 -169.5 q0 -135 -90 -233q-93 -101 -227 -101q-139 0 -139 84q0 22 22 44.5t44 22.5q29 0 82 -19t82 -19q67 0 112 51t45 118q0 140 -123 140q-18 0 -53 -5t-52 -5q-194 0 -328 147q-131 142 -131 338z" />
<glyph unicode="&#x3c3;" horiz-adv-x="1087" d="M50 441q0 191 118 332q125 150 313 150h556v-100h-282q155 -134 155 -356q0 -198 -119 -340q-126 -151 -321 -151q-185 0 -306 142q-114 135 -114 323zM207 526q0 -179 65 -318q83 -180 241 -180q240 0 240 362q0 307 -151 433h-150q-125 0 -189 -89q-56 -78 -56 -208z " />
<glyph unicode="&#x3c4;" horiz-adv-x="936" d="M50 757q0 39 60 100q67 66 168 66h608v-100h-327v-572q0 -223 139 -223q98 0 127 134q13 63 11 211h52v-118q0 -109 -47 -187q-56 -92 -158 -92q-128 0 -196.5 75t-68.5 204v568h-180q-57 0 -118.5 -41t-53.5 -41q-16 0 -16 16z" />
<glyph unicode="&#x3c5;" horiz-adv-x="1103" d="M52 629v120q0 84 45 141q49 62 131 62q88 0 138 -66q45 -59 45 -150v-357q0 -355 223 -355q159 0 241 173q64 134 64 313q0 328 -233 410l5 32q160 -18 255 -160q85 -127 85 -296q0 -211 -106 -357q-119 -163 -322 -163q-178 0 -271 103q-90 98 -90 278v421q0 39 -19 71 q-23 37 -60 37q-79 0 -79 -173q0 -6 3 -84h-55z" />
<glyph unicode="&#x3c6;" horiz-adv-x="1201" d="M52 461q0 160 105 294q112 142 295 187l-3 -53q-120 -44 -181 -164q-44 -87 -50 -191q-8 -163 69 -305q95 -172 272 -196v590q0 149 21 206q38 101 162 101q152 0 279.5 -138.5t127.5 -308.5q0 -189 -133 -332q-144 -156 -373 -173v-390h-84v389q-228 10 -373 160 q-134 139 -134 324zM643 31q174 10 263 134q72 100 77 253q6 159 -59 290q-75 151 -200 151q-81 0 -81 -193v-635z" />
<glyph unicode="&#x3c7;" horiz-adv-x="952" d="M51 -400l380 750q-20 97 -62 291q-17 74 -59 124q-51 61 -119 61q-78 0 -90 -159h-35v15q0 278 149 278q157 0 226 -319l41 -189l254 502h147l-360 -711q24 -116 75 -347q17 -74 59 -124q50 -61 118 -61q78 0 90 158h35v-14q0 -279 -149 -279q-157 0 -226 320l-53 245 l-274 -541h-147z" />
<glyph unicode="&#x3c8;" horiz-adv-x="1254" d="M52 629v120q0 84 45 141q49 62 131 62q88 0 138 -66q45 -59 45 -150v-351q0 -186 39 -256q55 -100 226 -100v894h83v-894q151 0 248 146q86 130 86 289q0 70 -42.5 200.5t-42.5 199.5q0 96 67 96q85 0 112 -118q14 -59 14 -186q0 -244 -99 -438q-122 -241 -343 -241v-389 h-83v389q-414 0 -414 386v415q0 39 -19 71q-23 37 -60 37q-79 0 -79 -173q0 -7 3 -84h-55z" />
<glyph unicode="&#x3c9;" horiz-adv-x="1328" d="M52 430q0 245 121 382q128 145 369 148v-48q-327 -10 -327 -470q0 -412 202 -412q135 0 224 241q-67 140 -67 291q0 219 90 219t90 -219q0 -151 -67 -291q89 -241 224 -241q202 0 202 412q0 460 -327 470v48q241 -3 369 -148q121 -138 121 -382q0 -173 -79 -302 q-93 -152 -255 -152q-185 0 -278 219q-93 -219 -278 -219q-162 0 -255 152q-79 129 -79 302z" />
<glyph unicode="&#x3ca;" horiz-adv-x="748" d="M-23 1240q0 44 33.5 77t77.5 33q47 0 79 -32t32 -78q0 -47 -32 -79.5t-79 -32.5q-45 0 -78 33.5t-33 78.5zM52 856v67l299 23v-685q0 -231 148 -231q102 0 131 139q14 64 12 219h53v-122q0 -114 -48 -194q-58 -96 -164 -96q-133 0 -204 80q-69 76 -69 210v473 q0 86 -41 106q-22 12 -117 11zM349 1240q0 44 33.5 77t77.5 33q47 0 79 -32t32 -78q0 -47 -32 -79.5t-79 -32.5q-45 0 -78 33.5t-33 78.5z" />
<glyph unicode="&#x3cb;" horiz-adv-x="1103" d="M52 629v120q0 84 45 141q49 62 131 62q88 0 138 -66q45 -59 45 -150v-357q0 -355 223 -355q159 0 241 173q64 134 64 313q0 328 -233 410l5 32q160 -18 255 -160q85 -127 85 -296q0 -211 -106 -357q-119 -163 -322 -163q-178 0 -271 103q-90 98 -90 278v421q0 39 -19 71 q-23 37 -60 37q-79 0 -79 -173q0 -6 3 -84h-55zM277 1240q0 44 33.5 77t77.5 33q47 0 79 -32t32 -78q0 -47 -32 -79.5t-79 -32.5q-45 0 -78 33.5t-33 78.5zM649 1240q0 44 33.5 77t77.5 33q47 0 79 -32t32 -78q0 -47 -32 -79.5t-79 -32.5q-45 0 -78 33.5t-33 78.5z" />
<glyph unicode="&#x3cc;" horiz-adv-x="998" d="M52 459q0 199 123 346q130 155 325 155q194 0 322 -141q123 -136 123 -333q0 -206 -124 -354q-131 -156 -333 -156q-192 0 -317 148q-119 139 -119 335zM215 548q0 -186 67 -331q87 -187 251 -187q249 0 249 376q0 187 -65 326q-84 180 -250 180q-135 0 -200 -121 q-52 -96 -52 -243zM400 1155q0 11 8 33l100 278q13 36 60 36q70 0 70 -45q0 -20 -17 -48l-144 -237q-25 -41 -46 -41q-31 0 -31 24z" />
<glyph unicode="&#x3cd;" horiz-adv-x="1103" d="M52 629v120q0 84 45 141q49 62 131 62q88 0 138 -66q45 -59 45 -150v-357q0 -355 223 -355q159 0 241 173q64 134 64 313q0 328 -233 410l5 32q160 -18 255 -160q85 -127 85 -296q0 -211 -106 -357q-119 -163 -322 -163q-178 0 -271 103q-90 98 -90 278v421q0 39 -19 71 q-23 37 -60 37q-79 0 -79 -173q0 -6 3 -84h-55zM490 1155q0 11 8 33l100 278q13 36 60 36q70 0 70 -45q0 -20 -17 -48l-144 -237q-25 -41 -46 -41q-31 0 -31 24z" />
<glyph unicode="&#x3ce;" horiz-adv-x="1328" d="M52 430q0 245 121 382q128 145 369 148v-48q-327 -10 -327 -470q0 -412 202 -412q135 0 224 241q-67 140 -67 291q0 219 90 219t90 -219q0 -151 -67 -291q89 -241 224 -241q202 0 202 412q0 460 -327 470v48q241 -3 369 -148q121 -138 121 -382q0 -173 -79 -302 q-93 -152 -255 -152q-185 0 -278 219q-93 -219 -278 -219q-162 0 -255 152q-79 129 -79 302zM580 1155q0 11 8 33l100 278q13 36 60 36q70 0 70 -45q0 -20 -17 -48l-144 -237q-25 -41 -46 -41q-31 0 -31 24z" />
<glyph unicode="&#x3cf;" horiz-adv-x="1519" d="M68 0v61q8 0 27 -1h28q125 0 141 40q6 15 6 44v1066q0 27 -7 41q-17 35 -195 33v62q70 -6 119 -6h342q50 0 120 6v-62q-9 0 -28 1t-29 1q-126 0 -142 -40q-6 -15 -6 -44v-636l618 588q36 34 36 67q0 61 -91 63v62q69 -6 180 -6q186 0 239 6v-62q-159 -2 -281 -118 l-306 -291l391 -478q107 -131 107 -310q0 -203 -127 -349q-134 -152 -334 -152q-121 0 -215 54q-113 64 -113 176q0 100 97 100q42 0 70.5 -28t28.5 -70q0 -94 -100 -99q79 -78 229 -78q59 0 120 34q182 102 182 353q0 180 -103 308l-347 430l-281 -268v-359q0 -28 9 -45 q18 -34 196 -33v-61q-71 6 -120 6h-347q-43 0 -114 -6z" />
<glyph unicode="&#x3d0;" horiz-adv-x="1007" d="M73 539q0 242 77 450q91 247 266 361q129 84 259 84q78 0 133 -36q63 -41 63 -116q0 -169 -247 -258q-180 -65 -390 -66q-51 -132 -56 -279q130 183 342 183q177 0 302 -125.5t125 -303.5q0 -186 -126 -320q-128 -137 -313 -137q-217 0 -340 185q-95 143 -95 378z M251 489q0 -167 66 -297q83 -162 234 -162q234 0 234 337q0 168 -64 292q-80 157 -232 157q-122 0 -186 -108q-52 -88 -52 -219zM260 1031q158 2 300 48q199 64 199 184q0 85 -108 85q-131 0 -241 -98q-98 -86 -150 -219z" />
<glyph unicode="&#x3d1;" horiz-adv-x="1206" d="M52 473v36q0 84 45 141q50 62 131 62q88 0 136 -66q42 -58 42 -150v-44q0 -431 230 -431q147 0 206 260q37 160 35 385v81q-184 55 -301 156q-146 125 -146 292q0 114 53 205q63 108 169 108q201 0 306 -293q74 -209 78 -464q118 -16 118 -45q0 -17 -15 -17 q-40 0 -103 19q0 -245 -85 -456q-111 -273 -315 -273q-246 0 -325 172q-49 108 -49 387q0 39 -19 71q-23 37 -60 37q-81 0 -79 -173h-52zM497 1179q0 -264 379 -382q-1 209 -33 374q-53 274 -175 274q-82 0 -131 -96q-40 -79 -40 -170z" />
<glyph unicode="&#x3d2;" horiz-adv-x="1566" d="M68 1284v62q126 -6 359 -6q114 0 187 6v-62h-24q-112 0 -112 -48q0 -14 13 -35l356 -581l325 529q21 34 21 58q0 77 -113 77v62q155 -6 228 -6q98 0 191 6v-62q-173 0 -252 -128l-381 -619v-388q0 -34 10 -53q15 -29 90 -35h104v-61q-73 6 -127 6h-320q-55 0 -128 -6v61 q8 0 26 -1h27q124 0 142 36q7 14 7 43v398l-413 675q-34 56 -95 68q-21 4 -121 4z" />
<glyph unicode="&#x3d3;" horiz-adv-x="1946" d="M0 1022q0 11 8 33l100 278q13 36 60 36q70 0 70 -45q0 -20 -17 -48l-144 -237q-25 -41 -46 -41q-31 0 -31 24zM448 1284v62q126 -6 359 -6q114 0 187 6v-62h-24q-112 0 -112 -48q0 -14 13 -35l356 -581l325 529q21 34 21 58q0 77 -113 77v62q155 -6 228 -6q98 0 191 6 v-62q-173 0 -252 -128l-381 -619v-388q0 -34 10 -53q15 -29 90 -35h104v-61q-73 6 -127 6h-320q-55 0 -128 -6v61q8 0 26 -1h27q124 0 142 36q7 14 7 43v398l-413 675q-34 56 -95 68q-21 4 -121 4z" />
<glyph unicode="&#x3d4;" horiz-adv-x="1566" d="M68 1284v62q126 -6 359 -6q114 0 187 6v-62h-24q-112 0 -112 -48q0 -14 13 -35l356 -581l325 529q21 34 21 58q0 77 -113 77v62q155 -6 228 -6q98 0 191 6v-62q-173 0 -252 -128l-381 -619v-388q0 -34 10 -53q15 -29 90 -35h104v-61q-73 6 -127 6h-320q-55 0 -128 -6v61 q8 0 26 -1h27q124 0 142 36q7 14 7 43v398l-413 675q-34 56 -95 68q-21 4 -121 4zM527 1496q0 44 33.5 77t77.5 33q47 0 79 -32t32 -78q0 -47 -32 -79.5t-79 -32.5q-45 0 -78 33.5t-33 78.5zM899 1496q0 44 33.5 77t77.5 33q47 0 79 -32t32 -78q0 -47 -32 -79.5t-79 -32.5 q-45 0 -78 33.5t-33 78.5z" />
<glyph unicode="&#x3d5;" horiz-adv-x="1201" d="M52 461q0 184 135 328q145 155 372 170v164h83v-164q225 -13 369 -155q138 -135 138 -321q0 -189 -133 -333q-144 -155 -374 -172v-390h-83v389q-228 10 -373 160q-134 139 -134 324zM218 534q-8 -164 70 -305q94 -172 271 -196v878q-180 -12 -270 -150q-64 -97 -71 -227 zM642 31q174 10 263 134q70 98 78 253q9 166 -67 303q-93 167 -274 188v-878z" />
<glyph unicode="&#x3d6;" horiz-adv-x="1666" d="M50 757q0 39 60 100q67 66 168 66h1336v-100h-246q158 -113 158 -383q0 -174 -79 -307q-93 -157 -255 -157q-185 0 -278 219q-93 -219 -278 -219q-162 0 -255 157q-79 133 -79 307q0 270 158 383h-222q-57 0 -118.5 -41t-53.5 -41q-16 0 -16 16zM465 462q0 -432 202 -432 q135 0 224 241q-67 140 -67 261q0 199 90 199t90 -199q0 -121 -67 -261q89 -241 224 -241q202 0 202 432q0 274 -135 361h-628q-135 -87 -135 -361z" />
<glyph unicode="&#x3d7;" horiz-adv-x="1028" d="M52 662v15q0 283 152 283q108 0 152 -213q26 -127 26 -300l288 232q15 281 122 281q46 0 60 -37q8 -20 8 -76q0 -171 -187 -321q6 -129 40 -243q50 -170 135 -170q80 0 92 161h36v-15q0 -202 -65 -370q-83 -218 -243 -259q-49 -13 -132 -11q-100 3 -133 -1 q-87 -10 -139 -60h-44q21 142 154 177q132 21 264 43q159 44 225 203q-18 -5 -39 -5q-105 0 -150 221q-26 130 -28 307l-293 -235q-8 -293 -123 -293q-64 0 -64 96q0 206 188 352q-5 124 -38 236q-49 163 -136 163q-80 0 -92 -161h-36z" />
<glyph unicode="&#x3d8;" horiz-adv-x="1445" d="M68 729q0 264 185 459q191 202 469 202q279 0 470 -202q185 -194 185 -459q0 -249 -170 -438q-174 -193 -434 -212v-74q0 -73 40 -248q10 -46 10 -73q0 -52 -28 -89t-73 -37q-46 0 -73 46q-23 40 -23 93q0 34 22 135q24 107 24 197v50q-259 19 -434 213 q-170 188 -170 437zM270 756q0 -436 273 -581q88 -47 181 -47q85 0 177 47q144 73 215 246q59 145 59 335q0 403 -266 538q-90 46 -187 46q-96 0 -184 -45q-268 -135 -268 -539z" />
<glyph unicode="&#x3d9;" horiz-adv-x="1054" d="M53 508q0 182 138.5 317t336.5 135q196 0 335 -135.5t139 -316.5q0 -168 -125 -291.5t-308 -138.5v-93q0 -88 28 -185q32 -111 32 -136q0 -45 -28.5 -75.5t-72.5 -30.5q-45 0 -72 38q-24 34 -24 81q0 32 26 130q29 110 29 202v68q-183 14 -308.5 139t-125.5 292zM230 526 q0 -193 58 -277q83 -119 240 -119q165 0 245 131q50 81 50 265q0 191 -59 271q-83 114 -238 114q-163 0 -242 -118q-54 -78 -54 -267z" />
<glyph unicode="&#x3da;" horiz-adv-x="1149" d="M24 737q0 224 116 402q133 204 345 204h405q125 0 236 75q2 -23 2 -48q0 -110 -109 -146q-59 -19 -200 -19h-357q-161 0 -270 -164q-98 -145 -98 -314q0 -207 144 -317q130 -101 344 -101q59 0 93 -42q28 -36 28 -88v-174q0 -73 40 -248q10 -46 10 -73q0 -52 -28 -89 t-73 -37q-46 0 -73 46q-23 40 -23 93q0 34 22 135q24 107 24 197q0 60 -10 85q-16 41 -66 46q-232 23 -367 178t-135 399z" />
<glyph unicode="&#x3db;" horiz-adv-x="1264" d="M55 402q0 240 171 385q161 136 405 136h600v-119h-592q-329 0 -451 -242q-40 -79 -40 -166q0 -120 73.5 -193.5t193.5 -73.5q27 0 81.5 3.5t81.5 3.5q99 0 162.5 -69t63.5 -169q0 -134 -91 -233q-94 -101 -227 -101q-139 0 -139 83q0 23 22 45.5t45 22.5q29 0 82 -18.5 t82 -18.5q66 0 111 50.5t45 117.5q0 144 -133 144q-28 0 -82 -7t-82 -7q-174 0 -281 128q-101 121 -101 298z" />
<glyph unicode="&#x3dc;" horiz-adv-x="1216" d="M68 0v61q8 0 27 -1h27q124 0 141 38q7 15 7 48v1053q0 31 -7 47q-16 38 -195 35v62h1026l55 -442h-49q-24 212 -82 285q-74 95 -274 95h-214q-51 0 -66 -12q-20 -14 -20 -67v-279h440l44 -350h-50q-25 155 -90 216q-77 72 -254 72h-90v-724q0 -22 8 -39q18 -39 245 -37 v-61q-74 6 -120 6h-382q-55 0 -127 -6z" />
<glyph unicode="&#x3dd;" horiz-adv-x="924" d="M52 -417q37 173 37 311v552q0 209 95 335q107 142 309 142h398v-119h-412q-145 0 -208 -48q-57 -44 -57 -139q0 -59 22 -154h381v-119h-381v-419q0 -214 -36 -342h-148z" />
<glyph unicode="&#x3de;" horiz-adv-x="910" d="M90 718q0 21 4 34l152 506q-6 -1 -10 -1q-93 0 -93 91q0 37 28 65.5t65 28.5q38 0 68.5 -27.5t30.5 -64.5q0 -45 -15 -96l-130 -441h607q48 0 77.5 -31.5t29.5 -79.5q0 -59 -11 -91l-316 -913q-48 -140 -119 -140q-86 0 -86 115q0 49 36 114q32 52 63 105 q170 327 356 755h-666q-29 0 -50 21t-21 50z" />
<glyph unicode="&#x3df;" horiz-adv-x="815" d="M70 491q0 15 4 23l209 418q-7 -1 -10 -1q-92 0 -92 89q0 36 28 64.5t64 28.5q37 0 63.5 -28t26.5 -65q0 -54 -19 -92l-181 -364h493q115 0 115 -99q0 -21 -21 -80l-245 -694q-47 -133 -116 -133q-87 0 -87 103q0 58 99 221q156 257 295 539h-557q-69 0 -69 70z" />
<glyph unicode="&#x3e0;" horiz-adv-x="1474" d="M68 0v61q145 -1 195 136l430 1172q15 42 45 42t45 -42l444 -1223q6 -20 25 -56q27 -32 156 -29v-61q-235 6 -345 6t-182 -6v61q158 -1 158 54q0 10 -163 462l-140 -371q-9 -24 -9 -42q0 -51 49 -79q39 -23 95 -24v-61q-182 6 -205 6q-82 0 -182 -6v61q135 -1 185 136 l173 472l-166 456l-346 -919q-9 -24 -9 -42q0 -51 53 -79q42 -23 99 -24v-61q-183 6 -223 6q-82 0 -182 -6z" />
<glyph unicode="&#x3e1;" horiz-adv-x="1238" d="M64 47q0 32 46 67q313 235 636 590q-225 180 -504 180q-32 0 -32 23q0 11 7 16q31 20 188 20q338 0 553.5 -215t215.5 -553q0 -158 -20 -189q-4 -7 -16 -7q-22 0 -22 57q0 205 -119 393q-166 -188 -235 -383q-26 -74 -67 -74q-37 0 -61.5 24.5t-24.5 61.5q0 136 325 459 q-58 72 -134 141q-28 -36 -54 -65l-481 -543q-69 -78 -120 -78q-29 0 -55 23t-26 52z" />
<glyph unicode="&#x3e2;" horiz-adv-x="1686" d="M68 617q0 345 161 546q174 218 511 227v-43q-470 -25 -470 -712q0 -626 295 -626q94 0 160 105q59 93 59 193q0 112 -22 212q-24 109 -24 127q0 125 105 125t105 -125q0 -18 -24 -127q-22 -100 -22 -212q0 -100 59 -193q66 -105 160 -105q295 0 295 626q0 687 -470 712 v43q337 -9 511 -227q161 -201 161 -546q0 -306 -103 -574q-131 -344 -375 -401q-43 -10 -114 -10q-35 0 -106 4t-106 4q-165 0 -263 -82h-44q16 123 116 170q62 29 212 41q142 12 169 15q95 11 165 35q186 63 277 273q-121 -135 -303 -135q-236 0 -296 247h-8 q-60 -247 -296 -247q-235 0 -366 222q-109 186 -109 438z" />
<glyph unicode="&#x3e3;" horiz-adv-x="1294" d="M53 430q0 244 121 382q128 145 369 148v-48q-327 -10 -327 -470q0 -169 25 -257q44 -155 169 -155q99 0 149 102q39 79 39 189q0 115 -22 217q-24 112 -24 127q0 116 95 116t95 -116q0 -15 -24 -127q-22 -102 -22 -217q0 -110 39 -189q50 -102 149 -102q125 0 169 155 q25 88 25 257q0 460 -327 470v48q242 -3 369 -148q121 -137 121 -382q0 -723 -318 -800q-49 -12 -136 -10q-99 2 -137 -3q-80 -11 -131 -59h-44q21 151 178 183l294 56q166 72 209 321q-92 -142 -249 -142q-224 0 -256 267h-8q-32 -267 -256 -267q-162 0 -255 152 q-79 129 -79 302z" />
<glyph unicode="&#x3e4;" horiz-adv-x="1567" d="M53 891q0 201 129 347q135 152 333 152q121 0 215 -54q113 -64 113 -176q0 -100 -97 -100q-42 0 -70.5 28t-28.5 70q0 94 100 99q-79 78 -229 78q-60 0 -120 -34q-168 -95 -168 -405q0 -161 89 -291q99 -145 253 -145q220 0 392 164q147 140 147 358v219q0 32 -9 49 q-15 28 -93 34h-111v62q70 -6 115 -6h376q42 0 111 6v-62q-11 0 -36 1t-39 1q-140 0 -140 -85v-1057q0 -27 11 -48q20 -37 204 -35v-61q-71 6 -117 6h-373q-41 0 -112 -6v61q8 0 30 -1h31q124 0 143 36q9 17 9 49v586q-43 -88 -119 -157q-185 -168 -420 -168 q-196 0 -355 144q-164 147 -164 341z" />
<glyph unicode="&#x3e5;" horiz-adv-x="1204" d="M53 622q0 154 110 248q104 90 261 90q89 0 159 -39q85 -47 85 -129q0 -76 -78 -76q-79 0 -79 75q0 55 61 75q-60 39 -146 39q-105 0 -164 -89q-52 -78 -52 -188q0 -125 64 -214q71 -99 191 -99q154 0 265 101q115 104 115 256v94q0 61 -33 79q-23 13 -89 13q7 0 -44 -1 v66q193 -6 234 -6q45 0 238 6v-66q-51 1 -44 1q-66 0 -89 -13q-33 -18 -33 -79v-609q0 -61 33 -79q23 -13 89 -13q-7 0 44 1v-66q-193 6 -238 6q-41 0 -234 -6v66q51 -1 44 -1q66 0 89 13q33 18 33 79v307q-27 -44 -72 -83q-135 -119 -308 -119q-171 0 -287 93 q-125 101 -125 267z" />
<glyph unicode="&#x3e6;" horiz-adv-x="1533" d="M68 0v61q42 -1 62 -1q110 0 133 36q7 11 7 41v1068q0 32 -7 45q-21 39 -195 34v62q66 -6 112 -6h354q48 0 115 6v-62q-42 2 -61 2q-114 0 -136 -36q-8 -13 -8 -45v-175q157 110 348 110q320 0 504 -231q169 -212 169 -540q0 -253 -114 -482q-140 -278 -367 -278 q-84 0 -246 43t-246 43q-173 0 -206 -137h-68q33 136 141 189q82 40 239 40q64 0 188 -32.5t188 -32.5q154 0 233 242q56 173 56 371q0 278 -98 486q-127 269 -373 269q-197 0 -316 -170q-32 -46 -32 -72v-707q0 -31 8 -45q24 -43 197 -35v-61q-68 6 -115 6h-358 q-42 0 -108 -6z" />
<glyph unicode="&#x3e7;" horiz-adv-x="1183" d="M52 1032q0 116 104 188q93 63 214 63q239 0 481 -223q54 73 84 73q12 0 12 -14q0 -30 -65 -88q249 -247 249 -585q0 -294 -220 -421q-85 -49 -174 -49q-227 0 -402 286q-43 70 -99 70q-58 0 -58 -64q0 -41 32 -104l-46 -26q-34 66 -34 120q0 68 46 118t114 50 q113 0 206 -155q53 -88 130 -147q89 -69 179 -69q98 0 155 70q53 65 53 164q0 143 -85 319q-74 154 -184 278q-190 -168 -342 -168q-204 0 -317 200q-33 58 -33 114zM105 1035q0 -111 105 -192q98 -75 213 -75q135 0 292 150q-256 283 -444 283q-73 0 -119.5 -46.5 t-46.5 -119.5z" />
<glyph unicode="&#x3e8;" horiz-adv-x="1017" d="M68 367q0 131 69.5 231t191.5 150l184 62q113 39 167 88q72 67 72 175q0 109 -74.5 185.5t-183.5 76.5q-160 0 -245 -99q109 0 109 -100q0 -42 -29.5 -69.5t-71.5 -27.5q-96 0 -96 109q0 112 120 182q102 60 222 60q159 0 270 -111.5t111 -270.5q0 -114 -61 -207 t-165 -142q-48 -23 -126 -47q-111 -34 -128 -40q-108 -38 -157 -114q-47 -72 -47 -161q0 -114 100 -198q95 -81 211 -81q109 0 201 60t143 159q30 58 48 177q5 32 24 32q23 0 23 -26q0 -189 -134.5 -326t-322.5 -137q-168 0 -296.5 121.5t-128.5 288.5z" />
<glyph unicode="&#x3e9;" horiz-adv-x="928" d="M52 582q0 168 116 275q113 103 283 103q177 0 301 -128t124 -306q0 -169 -160 -328q-37 -37 -298 -238q-160 -123 -160 -205q0 -73 74 -111q60 -31 140 -31q148 0 229 78q-43 1 -72 29t-29 70q0 43 28 71t71 28q98 0 98 -101q0 -112 -112 -176q-94 -54 -215 -54 q-109 0 -202 44q-115 56 -115 153q0 113 120 224q102 87 203 174q-178 26 -296 136q-128 120 -128 293zM201 562q0 -147 86 -242.5t233 -118.5q104 114 142 175q68 106 68 210q0 132 -67 221q-73 99 -201 99q-135 0 -203 -110q-58 -91 -58 -234z" />
<glyph unicode="&#x3ea;" horiz-adv-x="1479" d="M99 1127q0 117 101 193q93 70 214 70q130 0 214 -60q78 -54 138 -176q145 236 325 236q122 0 195 -80q70 -77 70 -200q0 -97 -33 -97q-29 0 -34 26q0 -1 0 49q0 66 -63.5 129t-129.5 63q-168 0 -293 -209q434 -1028 434 -1049q0 -22 -28 -22h-905q-24 0 -24 22 q0 13 10 37l383 911q-60 183 -86 233q-74 144 -177 144q-145 0 -217 -114q125 3 125 -110q0 -46 -31.5 -78t-77.5 -32q-48 0 -79 33t-31 81zM402 149h608l-302 726z" />
<glyph unicode="&#x3eb;" horiz-adv-x="1004" d="M53 774q0 85 76 138q69 48 157 48q162 0 244 -145q99 145 223 145q85 0 141.5 -54t56.5 -138q0 -68 -37 -68q-38 0 -38 54q0 135 -119 135q-87 0 -187 -158q298 -688 298 -703q0 -28 -33 -28h-625q-31 0 -31 28q0 12 271 637q-39 118 -56 152q-48 96 -111 96 q-93 0 -122 -50q75 -10 75 -91q0 -39 -26.5 -65.5t-65.5 -26.5q-40 0 -65.5 27t-25.5 67zM299 127h378l-188 439z" />
<glyph unicode="&#x3ec;" horiz-adv-x="1695" d="M68 669q0 285 182 498q192 223 472 223q103 0 309 -23.5t309 -23.5q174 0 286 75q2 -23 2 -48q0 -110 -135 -146q-71 -19 -224 -19q-136 0 -301 67.5t-246 67.5q-99 0 -190 -53q-262 -153 -262 -591q0 -470 265 -632q92 -56 189 -56q90 0 184 55q267 156 267 633 q0 137 -29 253l97 86q134 -169 134 -366q0 -284 -183 -494q-192 -218 -472 -218q-279 0 -471 219q-183 210 -183 493z" />
<glyph unicode="&#x3ed;" horiz-adv-x="1177" d="M52 459q0 199 123 346q130 155 325 155q57 0 170 -18.5t170 -18.5q173 0 286 75q2 -24 2 -48q0 -45 -59 -83q-74 -48 -194 -48q-130 0 -249 51q-98 42 -159 42q-134 0 -200 -121q-52 -96 -52 -243q0 -186 67 -331q87 -187 251 -187q249 0 249 376q0 148 -43 268l88 29 q42 -30 77 -90q41 -68 41 -127q0 -206 -124 -354q-131 -156 -333 -156q-192 0 -317 148q-119 139 -119 335z" />
<glyph unicode="&#x3ee;" horiz-adv-x="1286" d="M68 759q0 174 160 278q130 85 327 105v59q0 32 -9 49q-18 34 -153 34h-51v62q71 -6 115 -6h376q41 0 111 6v-62q-10 0 -29.5 1t-29.5 1q-75 0 -103 -9q-53 -18 -53 -76v-59q197 -20 328 -105q161 -104 161 -278q0 -106 -45 -187q-55 -97 -153 -97q-42 0 -69 28.5 t-27 70.5t29 69.5t71 27.5q77 0 96 -83q46 67 46 155q0 151 -146 234q-112 64 -291 79v-912q0 -27 11 -48q16 -29 94 -35h110v-61q-71 6 -117 6h-373q-41 0 -112 -6v61q8 0 29 -1h28q128 0 147 36q9 17 9 49v910q-178 -15 -290 -79q-145 -83 -145 -233q0 -88 46 -155 q19 83 96 83q42 0 71 -27.5t29 -69.5t-27 -70.5t-69 -28.5q-98 0 -153 97q-45 81 -45 187z" />
<glyph unicode="&#x3ef;" horiz-adv-x="970" d="M53 435q0 145 114 228q95 70 249 84v19q0 61 -33 79q-23 13 -89 13q7 0 -44 -1v66q193 -6 234 -6q45 0 238 6v-66q-51 1 -44 1q-66 0 -89 -13q-33 -18 -33 -79v-19q153 -15 248 -84q113 -83 113 -228q0 -62 -35 -116q-40 -60 -99 -60q-39 0 -68 31t-29 70t29.5 68.5 t68.5 29.5q44 0 78 -37q1 11 1 18q0 223 -307 248v-530q0 -61 33 -79q23 -13 89 -13q-7 0 44 1v-66q-193 6 -238 6q-41 0 -234 -6v66q51 -1 44 -1q66 0 89 13q33 18 33 79v530q-309 -24 -309 -248q0 -7 1 -18q34 37 78 37q39 0 68.5 -29.5t29.5 -68.5t-29 -70t-68 -31 q-59 0 -99 60q-35 54 -35 116z" />
<glyph unicode="&#x3f0;" horiz-adv-x="1028" d="M52 662v15q0 283 152 283q108 0 152 -213q26 -127 26 -300l288 232q15 281 122 281q46 0 60 -37q8 -20 8 -76q0 -171 -187 -321q6 -129 40 -243q50 -170 135 -170q80 0 92 161h36v-15q0 -283 -152 -283q-105 0 -150 221q-26 130 -28 307l-293 -235q-8 -293 -123 -293 q-64 0 -64 96q0 206 188 352q-5 124 -38 236q-49 163 -136 163q-80 0 -92 -161h-36z" />
<glyph unicode="&#x3f1;" horiz-adv-x="998" d="M52 459q0 200 122 346q130 155 326 155q194 0 322 -141q123 -137 123 -333q0 -206 -124 -354q-131 -156 -333 -156q-235 0 -360 207q32 -291 199 -376q23 -12 303 -64q166 -30 188 -185h-44q-64 61 -194 63q-181 2 -210 9q-318 80 -318 829zM215 548q0 -186 67 -331 q87 -187 251 -187q249 0 249 376q0 187 -65 326q-84 180 -250 180q-134 0 -200 -121q-52 -96 -52 -243z" />
<glyph unicode="&#x3f2;" horiz-adv-x="920" d="M53 461q0 201 129 347q135 152 333 152q99 0 207 -48q131 -58 131 -143q0 -81 -81 -81q-47 0 -74 56q-48 99 -52 105q-43 56 -128 56q-60 0 -120 -34q-168 -95 -168 -405q0 -306 178 -402q63 -34 123 -34q113 0 181 64q40 37 78 118q30 64 49 64q29 0 29 -22 q0 -23 -27 -75q-106 -203 -329 -203q-194 0 -328 147q-131 142 -131 338z" />
<glyph unicode="&#x3f3;" horiz-adv-x="588" d="M-149 -267q0 42 27.5 70t69.5 28t70.5 -28t28.5 -70q0 -76 -74 -96q58 -29 114 -29q158 0 158 281v861q0 39 -9 60q-22 50 -175 45v68l324 23v-1053q0 -133 -78 -229q-84 -103 -214 -103q-90 0 -159 40q-83 48 -83 132z" />
<glyph unicode="&#x3f4;" horiz-adv-x="1445" d="M68 669q0 285 182 498q191 223 472 223q282 0 473 -223q182 -212 182 -498q0 -285 -183 -494q-192 -218 -472 -218t-471 219q-183 209 -183 493zM270 671q8 -450 265 -607q91 -56 189 -56q90 0 184 55q258 151 267 608h-905zM271 731h903q-11 410 -259 555 q-92 54 -193 54q-99 0 -190 -53q-250 -146 -261 -556z" />
<glyph unicode="&#x3f5;" horiz-adv-x="920" d="M53 461q0 201 129 347q135 152 333 152q99 0 207 -48q131 -58 131 -143q0 -81 -81 -81q-47 0 -74 56q-48 99 -52 105q-43 56 -128 56q-60 0 -120 -34q-157 -88 -167 -371h330q59 0 59 -39q0 -38 -59 -38h-330q14 -271 177 -359q63 -34 123 -34q113 0 181 64q40 37 78 118 q30 64 49 64q29 0 29 -22q0 -23 -27 -75q-106 -203 -329 -203q-194 0 -328 147q-131 142 -131 338z" />
<glyph unicode="&#x3f6;" horiz-adv-x="920" d="M53 254q0 22 29 22q19 0 49 -64q38 -81 78 -118q68 -64 181 -64q60 0 123 34q163 88 177 359h-330q-59 0 -59 38q0 39 59 39h330q-10 283 -167 371q-60 34 -120 34q-85 0 -128 -56q-4 -6 -52 -105q-27 -56 -74 -56q-81 0 -81 81q0 85 131 143q108 48 207 48 q198 0 333 -152q129 -146 129 -347q0 -196 -131 -338q-134 -147 -328 -147q-223 0 -329 203q-27 52 -27 75z" />
<glyph unicode="&#x3f7;" horiz-adv-x="1076" d="M68 0v61q12 0 39 -1t42 -1q137 0 160 37q12 20 12 60v1038q0 37 -7 54q-17 41 -246 39v62q75 -6 155 -6h359q79 0 154 6v-62q-12 0 -39.5 1t-42.5 1q-137 0 -159 -37q-13 -22 -13 -76v-48q1 -34 1 -47q193 -16 344 -114q180 -118 180 -294q0 -175 -181 -293 q-152 -99 -343 -114v-110q0 -39 7 -56q18 -44 246 -39v-61q-75 6 -154 6h-359q-80 0 -155 -6zM483 311q328 36 328 363q0 329 -328 363v-726z" />
<glyph unicode="&#x3f8;" horiz-adv-x="990" d="M52 -417q37 173 37 311v1003v82q-1 55 -1 82q0 214 36 342h149q-37 -173 -37 -311v-218q101 86 257 86q194 0 322 -141q123 -136 123 -333q0 -206 -124 -354q-131 -156 -333 -156q-145 0 -245 113q0 -23 1 -82v-82q0 -214 -36 -342h-149zM236 286q0 -110 92 -185 q86 -71 198 -71q249 0 249 376q0 187 -65 326q-84 180 -250 180q-108 0 -170 -90q-54 -79 -54 -192v-344z" />
<glyph unicode="&#x3f9;" horiz-adv-x="1335" d="M68 673q0 289 196 501q201 216 488 216q166 0 296 -93q127 -90 190 -247q5 -12 5 -23q0 -24 -23 -24q-15 0 -25 23q-15 34 -52 101q-132 203 -366 203q-102 0 -209 -52q-298 -145 -298 -606q0 -476 322 -614q96 -41 185 -41q234 0 366 203q20 31 52 101q10 23 25 23 q23 0 23 -24q0 -11 -5 -23q-63 -157 -190 -247q-130 -93 -296 -93q-288 0 -488 215q-196 211 -196 501z" />
<glyph unicode="&#x3fa;" horiz-adv-x="2085" d="M68 0v62q152 0 195 132l378 1156q13 39 38 39q26 0 38 -37l328 -1003l323 1001q13 39 41 39q25 0 37 -37l395 -1207q6 -19 23 -53q25 -33 155 -30v-62q-242 6 -333 6q-114 0 -187 -6v62q166 -1 166 58q0 15 -4 27l-316 968l-323 -1001q-13 -39 -41 -39q-25 0 -37 37 l-329 1003l-296 -910q-10 -31 -10 -39q0 -53 63 -81q48 -22 109 -23v-62q-155 6 -234 6q-89 0 -179 -6z" />
<glyph unicode="&#x3fb;" horiz-adv-x="1531" d="M52 65q0 93 83 247l327 607q22 41 41 41q25 0 40 -41l169 -463l250 463q22 41 41 41q25 0 40 -41l234 -640q48 -131 86 -152q25 -14 116 -14v-49q-83 -1 -195 -88h-30q-55 105 -97 221l-208 573l-252 -462q-22 -41 -41 -41q-25 0 -40 41l-167 462l-199 -365 q-41 -75 -41 -125q0 -35 16.5 -103t16.5 -103q0 -98 -103 -98q-36 0 -61.5 26.5t-25.5 62.5z" />
<glyph unicode="&#x3fc;" horiz-adv-x="990" d="M10 -180h77q2 35 2 69v594q0 209 95 335q107 142 309 142q194 0 322 -141q123 -136 123 -333q0 -206 -124 -354q-131 -156 -333 -156q-145 0 -245 113q0 -24 1 -85v-84q0 -56 -2 -100h429v-100h-436q-8 -82 -27 -151h-149q17 80 26 151h-68v100zM236 286q0 -110 92 -185 q86 -71 198 -71q249 0 249 376q0 187 -65 326q-84 180 -250 180q-108 0 -170 -90q-54 -79 -54 -192v-344z" />
<glyph unicode="&#x3fd;" horiz-adv-x="1335" d="M92 320q0 24 23 24q14 0 25 -23q15 -34 52 -101q132 -203 366 -203q102 0 209 52q298 145 298 606q0 476 -322 614q-96 41 -185 41q-234 0 -366 -203q-21 -31 -52 -101q-11 -23 -25 -23q-23 0 -23 24q0 11 5 23q62 157 189 247q131 93 297 93q288 0 488 -215 q196 -211 196 -501q0 -289 -197 -501q-201 -216 -487 -216q-167 0 -297 93q-127 90 -189 247q-5 12 -5 23z" />
<glyph unicode="&#x3fe;" horiz-adv-x="1335" d="M68 673q0 289 196 501q201 216 488 216q166 0 296 -93q127 -90 190 -247q5 -12 5 -23q0 -24 -23 -24q-15 0 -25 23q-15 34 -52 101q-132 203 -366 203q-102 0 -209 -52q-298 -145 -298 -606q0 -476 322 -614q96 -41 185 -41q234 0 366 203q20 31 52 101q10 23 25 23 q23 0 23 -24q0 -11 -5 -23q-63 -157 -190 -247q-130 -93 -296 -93q-288 0 -488 215q-196 211 -196 501zM650 672q0 46 32 78t78 32t78 -32t32 -78t-32 -78t-78 -32t-78 32t-32 78z" />
<glyph unicode="&#x3ff;" horiz-adv-x="1335" d="M92 320q0 24 23 24q14 0 25 -23q15 -34 52 -101q132 -203 366 -203q102 0 209 52q298 145 298 606q0 476 -322 614q-96 41 -185 41q-234 0 -366 -203q-21 -31 -52 -101q-11 -23 -25 -23q-23 0 -23 24q0 11 5 23q62 157 190.5 248.5t295.5 91.5q288 0 488 -215 q196 -211 196 -501q0 -289 -197 -501q-201 -216 -487 -216q-167 0 -297 93q-127 90 -189 247q-5 12 -5 23zM465 675q0 46 32 78t78 32q45 0 77.5 -32t32.5 -78t-32.5 -78t-77.5 -32q-46 0 -78 32t-32 78z" />
<glyph unicode="&#x2000;" horiz-adv-x="1024" />
<glyph unicode="&#x2001;" d="M0 1606zM2048 1606z" />
<glyph unicode="&#x2002;" horiz-adv-x="1024" />
<glyph unicode="&#x2003;" d="M0 1606zM2048 1606z" />
<glyph unicode="&#x2004;" horiz-adv-x="683" />
<glyph unicode="&#x2005;" horiz-adv-x="512" />
<glyph unicode="&#x2006;" horiz-adv-x="341" />
<glyph unicode="&#x2007;" horiz-adv-x="1024" />
<glyph unicode="&#x2008;" horiz-adv-x="512" />
<glyph unicode="&#x2009;" horiz-adv-x="256" />
<glyph unicode="&#x200a;" horiz-adv-x="128" />
<glyph unicode="&#x200b;" horiz-adv-x="0" />
<glyph unicode="&#x200c;" horiz-adv-x="0" />
<glyph unicode="&#x200d;" horiz-adv-x="0" />
<glyph unicode="&#x200e;" horiz-adv-x="0" />
<glyph unicode="&#x200f;" horiz-adv-x="0" />
<glyph unicode="&#x2010;" horiz-adv-x="768" d="M95 582q0 41 39 41h502q37 0 37 -41t-37 -41h-502q-39 0 -39 41z" />
<glyph unicode="&#x2011;" horiz-adv-x="768" d="M95 582q0 41 39 41h502q37 0 37 -41t-37 -41h-502q-39 0 -39 41z" />
<glyph unicode="&#x2012;" horiz-adv-x="1024" d="M0 539v86h1024v-86h-1024z" />
<glyph unicode="&#x2013;" horiz-adv-x="1024" d="M0 539v86h1024v-86h-1024z" />
<glyph unicode="&#x2014;" d="M0 539v86h2048v-86h-2048z" />
<glyph unicode="&#x2015;" horiz-adv-x="1536" d="M112 539v86h1312v-86h-1312z" />
<glyph unicode="&#x2016;" horiz-adv-x="790" d="M164 -311v1788q0 39 41 39t41 -39v-1788q0 -41 -41 -41t-41 41zM544 -311v1788q0 39 41 39t41 -39v-1788q0 -41 -41 -41t-41 41z" />
<glyph unicode="&#x2017;" horiz-adv-x="1024" d="M0 -139q0 41 39 41h948q37 0 37 -41t-37 -41h-948q-39 0 -39 41zM0 -359q0 41 39 41h948q37 0 37 -41t-37 -41h-948q-39 0 -39 41z" />
<glyph unicode="&#x2018;" horiz-adv-x="536" d="M139 963q0 205 141 345q29 28 41 28q18 0 18 -21q0 -9 -22 -32q-135 -135 -135 -332q0 -15 4 -24q1 2 5 6q32 31 77 31t73.5 -29t28.5 -74q0 -44 -29 -72.5t-73 -28.5q-68 0 -103 71q-26 55 -26 132z" />
<glyph unicode="&#x2019;" horiz-adv-x="536" d="M166 1237q0 44 29 72.5t73 28.5q69 0 103 -71q26 -55 26 -131q0 -206 -141 -346q-29 -28 -41 -28q-18 0 -18 21q0 9 22 32q136 136 136 332q0 15 -4 24q-1 -2 -5 -6q-33 -31 -78 -31q-44 0 -73 29t-29 74z" />
<glyph unicode="&#x201a;" horiz-adv-x="482" d="M128 102q0 44 29.5 73t73.5 29q123 0 123 -202q0 -205 -137 -345q-28 -29 -39 -29q-19 0 -19 21q0 8 13 22q140 151 140 331q0 22 -5 29q-27 -31 -76 -31q-45 0 -74 28.5t-29 73.5z" />
<glyph unicode="&#x201b;" horiz-adv-x="536" d="M166 1136q0 76 27 131q34 71 102 71q44 0 73 -28.5t29 -72.5q0 -45 -28.5 -74t-73.5 -29t-78 31q-1 2 -5 6q-4 -9 -4 -24q0 -196 136 -332q23 -23 23 -32q0 -21 -19 -21q-11 0 -40 28q-142 140 -142 346z" />
<glyph unicode="&#x201c;" horiz-adv-x="964" d="M293 963q0 203 143 345q28 28 39 28q19 0 19 -21q0 -9 -23 -32q-136 -136 -136 -332q0 -15 4 -24q1 0 7 6q35 31 77 31q44 0 73 -29t29 -74q0 -44 -29 -72.5t-73 -28.5q-69 0 -103 71q-27 55 -27 132zM668 963q0 201 142 345q28 28 38 28q20 0 20 -21q0 -8 -23 -32 q-135 -135 -135 -332q0 -15 4 -24l6 6q33 31 76 31q45 0 74 -29t29 -74q0 -44 -29.5 -72.5t-73.5 -28.5q-68 0 -102 71q-26 55 -26 132z" />
<glyph unicode="&#x201d;" horiz-adv-x="964" d="M66 1237q0 44 28.5 72.5t72.5 28.5q68 0 103 -71q27 -55 27 -131q0 -202 -143 -346q-28 -28 -38 -28q-20 0 -20 21q0 8 24 32q135 135 135 332q0 15 -4 24l-6 -6q-34 -31 -78 -31t-72.5 29t-28.5 74zM439 1237q0 44 29.5 72.5t73.5 28.5q68 0 103 -71q26 -55 26 -131 q0 -204 -142 -346q-29 -28 -39 -28q-19 0 -19 21q0 9 23 32q135 136 135 332q0 15 -4 24q-1 0 -7 -6q-34 -31 -76 -31q-45 0 -74 29t-29 74z" />
<glyph unicode="&#x201e;" horiz-adv-x="857" d="M128 102q0 44 29.5 73t73.5 29q123 0 123 -202q0 -205 -137 -345q-28 -29 -39 -29q-19 0 -19 21q0 8 13 22q140 151 140 331q0 22 -5 29q-27 -31 -76 -31q-45 0 -74 28.5t-29 73.5zM502 102q0 44 29.5 73t74.5 29q123 0 123 -202q0 -205 -137 -345q-28 -29 -39 -29 q-19 0 -19 21q0 8 13 22q139 151 139 331q0 22 -5 29q-26 -31 -75 -31q-45 0 -74.5 28.5t-29.5 73.5z" />
<glyph unicode="&#x201f;" horiz-adv-x="964" d="M66 1136q0 76 27 131q34 71 103 71q44 0 73 -28.5t29 -72.5q0 -45 -29 -74t-73 -29q-42 0 -77 31q-2 2 -7 6q-4 -9 -4 -24q0 -196 136 -332q22 -23 22 -32q0 -21 -18 -21q-11 0 -40 28q-142 142 -142 346zM440 1136q0 76 27 131q35 71 103 71q44 0 72.5 -28.5t28.5 -72.5 q0 -45 -28 -74t-73 -29q-44 0 -77 31l-6 6q-4 -9 -4 -24q0 -197 134 -332q24 -24 24 -32q0 -21 -20 -21q-10 0 -38 28q-143 144 -143 346z" />
<glyph unicode="&#x2020;" horiz-adv-x="982" d="M51 920q0 87 104 87q51 0 131 -23q97 -28 129 -33l55 -8l-10 74q-5 38 -24 102q-32 108 -32 199q0 121 87 121t87 -121q0 -91 -32 -199q-19 -64 -24 -102l-10 -74l55 8q32 5 129 33q80 23 131 23q104 0 104 -87t-104 -87q-51 0 -131 23q-100 28 -130 33l-51 8 q28 -200 93 -283q-57 -175 -69 -307q-26 -279 -26 -707q0 -13 -22 -13t-22 13q0 428 -26 707q-12 132 -69 307q65 83 93 283l-51 -8q-30 -5 -130 -33q-80 -23 -131 -23q-104 0 -104 87z" />
<glyph unicode="&#x2021;" horiz-adv-x="982" d="M51 106q0 87 104 87q51 0 131 -23q100 -28 130 -33l51 -8q0 97 -28 210q-29 117 -70 174q41 57 70 174q28 113 28 210l-51 -8q-30 -5 -130 -33q-80 -23 -131 -23q-104 0 -104 87t104 87q51 0 131 -23q97 -28 129 -33l55 -8l-10 74q-5 38 -24 102q-32 108 -32 199 q0 121 87 121t87 -121q0 -91 -32 -199q-19 -64 -24 -102l-10 -74l55 8q32 5 129 33q80 23 131 23q104 0 104 -87t-104 -87q-51 0 -131 23q-100 28 -130 33l-51 8q0 -97 28 -210q29 -117 70 -174q-41 -57 -70 -174q-28 -113 -28 -210l51 8q30 5 130 33q80 23 131 23 q104 0 104 -87t-104 -87q-51 0 -131 23q-97 28 -129 33l-55 8l10 -74q5 -38 24 -102q32 -108 32 -199q0 -121 -87 -121t-87 121q0 91 32 199q19 64 24 102l10 74l-55 -8q-32 -5 -129 -33q-80 -23 -131 -23q-104 0 -104 87z" />
<glyph unicode="&#x2022;" horiz-adv-x="738" d="M40 582q0 137 96 233t233 96t233 -96t96 -233t-96 -233t-233 -96t-233 96t-96 233z" />
<glyph unicode="&#x2023;" horiz-adv-x="512" d="M65 220v496l399 -248z" />
<glyph unicode="&#x2024;" horiz-adv-x="682" d="M228 -105q0 47 33 80t80 33q46 0 79.5 -33.5t33.5 -79.5q0 -47 -33 -80t-80 -33t-80 33t-33 80z" />
<glyph unicode="&#x2025;" horiz-adv-x="1365" d="M228 -105q0 47 33 80t80 33q46 0 79.5 -33.5t33.5 -79.5q0 -47 -33 -80t-80 -33t-80 33t-33 80zM911 -105q0 47 33 79.5t80 32.5q45 0 79 -33.5t34 -78.5q0 -46 -34 -79.5t-79 -33.5q-46 0 -79.5 33.5t-33.5 79.5z" />
<glyph unicode="&#x2026;" d="M228 -105q0 47 33 80t80 33q46 0 79.5 -33.5t33.5 -79.5q0 -47 -33 -80t-80 -33t-80 33t-33 80zM911 -105q0 47 33 79.5t80 32.5q45 0 79 -33.5t34 -78.5q0 -46 -34 -79.5t-79 -33.5q-46 0 -79.5 33.5t-33.5 79.5zM1594 -105q0 47 33 79.5t80 32.5q45 0 79 -33.5 t34 -78.5q0 -46 -34 -79.5t-79 -33.5q-46 0 -79.5 33.5t-33.5 79.5z" />
<glyph unicode="&#x2027;" horiz-adv-x="512" d="M110 468q0 60 43 103t103 43t103 -43t43 -103t-43 -103t-103 -43t-103 43t-43 103z" />
<glyph unicode="&#x2028;" horiz-adv-x="0" />
<glyph unicode="&#x2029;" horiz-adv-x="0" />
<glyph unicode="&#x202a;" horiz-adv-x="0" />
<glyph unicode="&#x202b;" horiz-adv-x="0" />
<glyph unicode="&#x202c;" horiz-adv-x="0" />
<glyph unicode="&#x202d;" horiz-adv-x="0" />
<glyph unicode="&#x202e;" horiz-adv-x="0" />
<glyph unicode="&#x202f;" horiz-adv-x="256" />
<glyph unicode="&#x2030;" horiz-adv-x="2342" d="M50 1119q0 459 281 459q149 0 223 -142q165 -149 331 -149q235 0 389 195q23 29 43 29q41 0 41 -41q0 -12 -17 -37l-1037 -1536q-21 -31 -41 -31q-41 0 -41 41q0 13 19 41l920 1364q-106 -70 -274 -70q-160 0 -297 99q22 -86 22 -222q0 -453 -282 -453q-280 0 -280 453z M169 1050q0 -345 161 -345q163 0 163 346q0 226 1 203q-5 132 -34 197q-47 44 -84 81q-22 7 -46 7q-108 0 -143 -128q-18 -67 -18 -216v-145zM1050 419q0 459 281 459t281 -459q0 -453 -282 -453q-280 0 -280 453zM1169 350q0 -345 161 -345q163 0 163 346v141 q0 150 -19 217q-35 130 -144 130q-108 0 -143 -128q-18 -67 -18 -216v-145zM1730 419q0 459 281 459t281 -459q0 -453 -282 -453q-280 0 -280 453zM1849 350q0 -345 161 -345q163 0 163 346v141q0 150 -19 217q-35 130 -144 130q-108 0 -143 -128q-18 -67 -18 -216v-145z " />
<glyph unicode="&#x2031;" horiz-adv-x="3022" d="M50 1119q0 459 281 459q149 0 223 -142q165 -149 331 -149q235 0 389 195q23 29 43 29q41 0 41 -41q0 -12 -17 -37l-1037 -1536q-21 -31 -41 -31q-41 0 -41 41q0 13 19 41l920 1364q-106 -70 -274 -70q-160 0 -297 99q22 -86 22 -222q0 -453 -282 -453q-280 0 -280 453z M169 1050q0 -345 161 -345q163 0 163 346q0 226 1 203q-5 132 -34 197q-47 44 -84 81q-22 7 -46 7q-108 0 -143 -128q-18 -67 -18 -216v-145zM1050 419q0 459 281 459t281 -459q0 -453 -282 -453q-280 0 -280 453zM1169 350q0 -345 161 -345q163 0 163 346v141 q0 150 -19 217q-35 130 -144 130q-108 0 -143 -128q-18 -67 -18 -216v-145zM1730 419q0 459 281 459t281 -459q0 -453 -282 -453q-280 0 -280 453zM1849 350q0 -345 161 -345q163 0 163 346v141q0 150 -19 217q-35 130 -144 130q-108 0 -143 -128q-18 -67 -18 -216v-145z M2410 419q0 459 281 459t281 -459q0 -453 -282 -453q-280 0 -280 453zM2529 350q0 -345 161 -345q163 0 163 346v141q0 150 -19 217q-35 130 -144 130q-108 0 -143 -128q-18 -67 -18 -216v-145z" />
<glyph unicode="&#x2032;" horiz-adv-x="506" d="M29 751q0 8 6 26l239 707q18 54 94 54q40 0 73 -20q40 -23 40 -60q0 -16 -9 -32l-385 -667q-14 -25 -31 -25q-27 0 -27 17z" />
<glyph unicode="&#x2033;" horiz-adv-x="870" d="M29 751q0 8 6 26l239 707q18 54 94 54q40 0 73 -20q40 -23 40 -60q0 -16 -9 -32l-385 -667q-14 -25 -31 -25q-27 0 -27 17zM389 751q0 8 6 26l239 707q18 54 94 54q40 0 73 -20q40 -23 40 -60q0 -16 -9 -32l-385 -667q-14 -25 -31 -25q-27 0 -27 17z" />
<glyph unicode="&#x2034;" horiz-adv-x="1230" d="M29 751q0 8 6 26l239 707q18 54 94 54q40 0 73 -20q40 -23 40 -60q0 -16 -9 -32l-385 -667q-14 -25 -31 -25q-27 0 -27 17zM389 751q0 8 6 26l239 707q18 54 94 54q40 0 73 -20q40 -23 40 -60q0 -16 -9 -32l-385 -667q-14 -25 -31 -25q-27 0 -27 17zM749 751q0 8 6 26 l239 707q18 54 94 54q40 0 73 -20q40 -23 40 -60q0 -16 -9 -32l-385 -667q-14 -25 -31 -25q-27 0 -27 17z" />
<glyph unicode="&#x2035;" horiz-adv-x="506" d="M29 1458q0 37 40 60q33 20 73 20q76 0 94 -54l239 -707q6 -18 6 -26q0 -17 -27 -17q-17 0 -31 25l-385 667q-9 16 -9 32z" />
<glyph unicode="&#x2036;" horiz-adv-x="870" d="M29 1458q0 37 40 60q33 20 73 20q76 0 94 -54l239 -707q6 -18 6 -26q0 -17 -27 -17q-17 0 -31 25l-385 667q-9 16 -9 32zM389 1458q0 37 40 60q33 20 73 20q76 0 94 -54l239 -707q6 -18 6 -26q0 -17 -27 -17q-17 0 -31 25l-385 667q-9 16 -9 32z" />
<glyph unicode="&#x2037;" horiz-adv-x="1230" d="M29 1458q0 37 40 60q33 20 73 20q76 0 94 -54l239 -707q6 -18 6 -26q0 -17 -27 -17q-17 0 -31 25l-385 667q-9 16 -9 32zM389 1458q0 37 40 60q33 20 73 20q76 0 94 -54l239 -707q6 -18 6 -26q0 -17 -27 -17q-17 0 -31 25l-385 667q-9 16 -9 32zM749 1458q0 37 40 60 q33 20 73 20q76 0 94 -54l239 -707q6 -18 6 -26q0 -17 -27 -17q-17 0 -31 25l-385 667q-9 16 -9 32z" />
<glyph unicode="&#x2038;" horiz-adv-x="722" d="M25 -395l336 673l336 -673h-138l-199 395l-197 -395h-138z" />
<glyph unicode="&#x2039;" horiz-adv-x="717" d="M47 421q0 15 15 25q29 15 87 46q186 100 265 266q13 33 26 65q20 41 49 41q39 0 39 -27q0 -3 -3 -10q-123 -284 -344 -406q223 -124 344 -406q3 -7 3 -10q0 -27 -48 -27q-20 0 -41 44q-12 30 -25 61q-79 165 -266 268q-29 14 -86 45q-15 10 -15 25z" />
<glyph unicode="&#x203a;" horiz-adv-x="717" d="M189 5q0 5 2 10q116 279 345 406q-227 125 -345 406q-2 4 -2 10q0 27 39 27q29 0 48 -41q13 -32 26 -65q78 -165 265 -266q31 -14 88 -46q15 -10 15 -25t-15 -25l-87 -45q-188 -104 -266 -268l-26 -64q-20 -41 -46 -41q-41 0 -41 27z" />
<glyph unicode="&#x203b;" horiz-adv-x="1288" d="M82 429q0 44 32 76t77 32t77 -32t32 -76q0 -45 -32 -77t-77 -32t-77 32t-32 77zM260 88q0 15 10 25l316 316l-316 316q-10 10 -10 25q0 43 43 43q15 0 25 -10l316 -316l315 315q10 10 26 10q42 0 42 -42q0 -16 -10 -26l-315 -315l315 -315q10 -10 10 -26q0 -42 -42 -42 q-16 0 -26 10l-315 315l-316 -316q-10 -10 -25 -10q-43 0 -43 43zM535 -24q0 44 32 76t77 32t77 -32t32 -76q0 -45 -32 -77t-77 -32t-77 32t-32 77zM535 882q0 44 32 76t77 32t77 -32t32 -76q0 -45 -32 -77t-77 -32t-77 32t-32 77zM988 429q0 44 32 76t77 32t77 -32t32 -76 q0 -45 -32 -77t-77 -32t-77 32t-32 77z" />
<glyph unicode="&#x203c;" horiz-adv-x="1142" d="M232 109q0 44 32 76t77 32t77 -32t32 -76q0 -45 -32 -77t-77 -32t-77 32t-32 77zM233 1362v9q0 43 32 69t76 26t76 -26t32 -69v-9l-79 -932q-4 -47 -29 -47t-29 47zM692 109q0 44 32 76t77 32t77 -32t32 -76q0 -45 -32 -77t-77 -32t-77 32t-32 77zM693 1362v9q0 43 32 69 t76 26t76 -26t32 -69v-9l-79 -932q-4 -47 -29 -47t-29 47z" />
<glyph unicode="&#x203d;" horiz-adv-x="909" d="M87 1171q0 126 115 204q101 69 233 69q157 0 260 -59q127 -73 127 -218q0 -124 -98 -200q-239 -185 -252 -347l-16 -192q-4 -45 -29 -45t-29 47l-67 792q-1 7 -1 15q0 40 28.5 64.5t68.5 24.5t68.5 -24.5t28.5 -64.5q0 -9 -1 -15l-30 -361q37 66 90 124q69 75 69 195 q0 117 -51 168t-172 51q-187 0 -268 -139q114 1 114 -93t-94 -94t-94 98zM318 109q0 44 32.5 76t76.5 32t76.5 -32t32.5 -76t-32.5 -76.5t-76.5 -32.5t-76.5 32.5t-32.5 76.5z" />
<glyph unicode="&#x203e;" horiz-adv-x="1024" d="M0 1520v86h1024v-86h-1024z" />
<glyph unicode="&#x203f;" horiz-adv-x="1020" d="M58 -192h59q138 -150 393 -150t393 150h59q-171 -250 -452 -250t-452 250z" />
<glyph unicode="&#x2040;" horiz-adv-x="1020" d="M58 1256q171 250 452 250t452 -250h-59q-138 150 -393 150t-393 -150h-59z" />
<glyph unicode="&#x2041;" horiz-adv-x="952" d="M25 -395l740 1481h138l-473 -946l267 -535h-138l-199 395l-197 -395h-138z" />
<glyph unicode="&#x2042;" horiz-adv-x="1876" d="M173 240l317 155l-317 154l49 86l293 -197l-25 352h99l-25 -353l293 198l49 -85l-317 -155l317 -155l-49 -85l-293 197l25 -352h-99l25 352l-293 -197zM572 931l317 155l-317 154l49 86l293 -198l-25 352h98l-24 -352l293 198l49 -86l-317 -154l317 -155l-45 -85 l-297 197l25 -352h-99l25 352l-293 -197zM971 240l317 155l-317 154l49 86l292 -197l-24 352h98l-24 -353l292 198l50 -85l-318 -155l318 -155l-50 -85l-292 197l24 -352h-98l24 352l-292 -197z" />
<glyph unicode="&#x2043;" horiz-adv-x="512" d="M135 346v242h242v-242h-242z" />
<glyph unicode="&#x2044;" horiz-adv-x="0" d="M-576 -232q0 13 6 22l1071 1649q11 17 35 17q40 0 40 -40q0 -13 -6 -22l-1071 -1649q-11 -17 -35 -17q-40 0 -40 40z" />
<glyph unicode="&#x2045;" horiz-adv-x="682" d="M112 -350v1864h391q68 0 68 -40q0 -41 -68 -41h-309v-810h340q37 0 37 -41t-37 -41h-340v-809h309q68 0 68 -41t-68 -41h-391z" />
<glyph unicode="&#x2046;" horiz-adv-x="682" d="M111 -309q0 41 68 41h309v809h-340q-37 0 -37 41t37 41h340v810h-309q-68 0 -68 41q0 40 68 40h391v-1864h-391q-68 0 -68 41z" />
<glyph unicode="&#x2047;" horiz-adv-x="1709" d="M87 1171q0 107 91 186q100 87 257 87q207 0 308 -94q79 -73 79 -183q0 -127 -98 -200q-270 -200 -270 -457v-72q0 -55 -27 -55q-25 0 -25 49v92q0 267 181 461q69 74 69 195q0 95 -28 139q-49 80 -195 80q-187 0 -268 -139q114 0 114 -93q0 -94 -94 -94t-94 98zM318 109 q0 44 32 76t77 32t77 -32t32 -76q0 -45 -32 -77t-77 -32t-77 32t-32 77zM887 1171q0 107 91 186q100 87 257 87q207 0 308 -94q79 -73 79 -183q0 -127 -98 -200q-270 -200 -270 -457v-72q0 -55 -27 -55q-25 0 -25 49v92q0 267 181 461q69 74 69 195q0 95 -28 139 q-49 80 -195 80q-187 0 -268 -139q114 0 114 -93q0 -94 -94 -94t-94 98zM1118 109q0 44 32 76t77 32t77 -32t32 -76q0 -45 -32 -77t-77 -32t-77 32t-32 77z" />
<glyph unicode="&#x2048;" horiz-adv-x="1552" d="M87 1171q0 107 91 186q100 87 257 87q207 0 308 -94q79 -73 79 -183q0 -127 -98 -200q-270 -200 -270 -457v-72q0 -55 -27 -55q-25 0 -25 49v92q0 267 181 461q69 74 69 195q0 95 -28 139q-49 80 -195 80q-187 0 -268 -139q114 0 114 -93q0 -94 -94 -94t-94 98zM318 109 q0 44 32 76t77 32t77 -32t32 -76q0 -45 -32 -77t-77 -32t-77 32t-32 77zM1102 109q0 44 32 76t77 32t77 -32t32 -76q0 -45 -32 -77t-77 -32t-77 32t-32 77zM1103 1362v9q0 43 32 69t76 26t76 -26t32 -69v-9l-79 -932q-4 -47 -29 -47t-29 47z" />
<glyph unicode="&#x2049;" horiz-adv-x="1607" d="M232 109q0 44 32 76t77 32t77 -32t32 -76q0 -45 -32 -77t-77 -32t-77 32t-32 77zM233 1362v9q0 43 32 69t76 26t76 -26t32 -69v-9l-79 -932q-4 -47 -29 -47t-29 47zM785 1171q0 107 91 186q100 87 257 87q207 0 308 -94q79 -73 79 -183q0 -127 -98 -200 q-270 -200 -270 -457v-72q0 -55 -27 -55q-25 0 -25 49v92q0 267 181 461q69 74 69 195q0 95 -28 139q-49 80 -195 80q-187 0 -268 -139q114 0 114 -93q0 -94 -94 -94t-94 98zM1016 109q0 44 32 76t77 32t77 -32t32 -76q0 -45 -32 -77t-77 -32t-77 32t-32 77z" />
<glyph unicode="&#x204a;" horiz-adv-x="1077" d="M40 1001q0 92 30 229q254 -40 511 -40q164 0 326 23q43 8 130 16l-143 -1594h-118l125 1297l-8 4q-269 -72 -514 -72q-187 0 -324 40q-15 50 -15 97z" />
<glyph unicode="&#x204b;" horiz-adv-x="964" d="M36 1235v51h467q184 0 297 -83q127 -93 127 -270q0 -360 -452 -358v-982h-69v1642h-177v-1642h-68v1642h-125z" />
<glyph unicode="&#x204c;" horiz-adv-x="1455" d="M222 592q0 248 172 420t420 172h419v-1184h-419q-248 0 -420 172t-172 420zM814 99h350v987h-350v-987z" />
<glyph unicode="&#x204d;" horiz-adv-x="1455" d="M222 0v1184h419q248 0 420 -172t172 -420t-172 -420t-420 -172h-419zM291 99h350v987h-350v-987z" />
<glyph unicode="&#x204e;" horiz-adv-x="987" d="M110 248l46 141l284 -125q-36 -31 -27 -82zM211 -62l206 231q20 -45 70 -51l-156 -267zM420 580h148l-31 -308q-18 11 -43 11t-43 -11zM500 118q51 6 70 51l207 -231l-120 -87zM548 264l284 125l45 -141l-303 -66q2 6 3 15q0 41 -29 67z" />
<glyph unicode="&#x204f;" horiz-adv-x="546" d="M142 2q0 81 26 139q34 76 105 76q44 0 76.5 -32t32.5 -76t-32.5 -76.5t-76.5 -32.5q-49 0 -82 38q-4 -22 -4 -36q0 -191 148 -352q14 -15 14 -23q0 -22 -20 -22q-11 0 -41 31q-146 150 -146 366zM164 749q0 44 32.5 76t76.5 32t76.5 -32t32.5 -76t-32.5 -76.5 t-76.5 -32.5t-76.5 32.5t-32.5 76.5z" />
<glyph unicode="&#x2050;" horiz-adv-x="1476" d="M201 425h57q165 -178 480 -178q316 0 482 178h55q-200 -291 -537 -291q-336 0 -537 291zM201 849q201 290 538 290t536 -290h-55q-165 179 -481 179t-481 -179h-57z" />
<glyph unicode="&#x2051;" horiz-adv-x="987" d="M110 248l46 141l284 -125q-36 -31 -27 -82zM110 1148l46 141l284 -125q-36 -31 -27 -82zM211 -62l206 231q20 -45 70 -51l-156 -267zM211 838l206 231q20 -45 70 -51l-156 -267zM420 580h148l-31 -308q-18 11 -43 11t-43 -11zM420 1480h148l-31 -308q-18 11 -43 11 t-43 -11zM500 118q51 6 70 51l207 -231l-120 -87zM500 1018q51 6 70 51l207 -231l-120 -87zM548 264l284 125l45 -141l-303 -66q2 6 3 15q0 41 -29 67zM548 1164l284 125l45 -141l-303 -66q2 6 3 15q0 41 -29 67z" />
<glyph unicode="&#x2052;" horiz-adv-x="1520" d="M184 -232q0 13 6 22l1071 1649q11 17 35 17q40 0 40 -40q0 -13 -6 -22l-1071 -1649q-11 -17 -35 -17q-40 0 -40 40zM282 1218q0 45 32 77t77 32t77 -32t32 -77q0 -44 -32 -76t-77 -32t-77 32t-32 76zM1020 -35q0 45 32 77t77 32t77 -32t32 -77q0 -44 -32 -76t-77 -32 t-77 32t-32 76z" />
<glyph unicode="&#x2053;" horiz-adv-x="1058" d="M37 438q0 109 71 191q74 87 181 87q100 0 247.5 -117t233.5 -117q155 0 192 184q9 49 31 49q28 0 28 -56q0 -111 -70 -193q-73 -86 -181 -86q-100 0 -247.5 116.5t-233.5 116.5q-136 0 -179 -131q-6 -29 -13 -58q-12 -43 -30 -43q-30 0 -30 57z" />
<glyph unicode="&#x2054;" horiz-adv-x="1020" d="M58 -442q171 250 452 250t452 -250h-59q-138 150 -393 150t-393 -150h-59z" />
<glyph unicode="&#x2055;" horiz-adv-x="660" d="M53 468q0 60 57 60q21 0 55.5 -25t48.5 -25q34 0 34 29q0 36 -69 44t-69 55q0 24 21 45t45 21q49 0 60 -65t43 -65q38 0 38 37q0 19 -26.5 51t-26.5 45q0 26 21.5 43t47.5 17q24 0 43.5 -18t19.5 -42q0 -21 -27 -51.5t-27 -47.5q0 -39 43 -39q29 0 37.5 66t61.5 66 q60 0 60 -60q0 -54 -65 -59.5t-65 -36.5q0 -37 31 -37q19 0 51 27.5t55 27.5q56 0 56 -63q0 -27 -18.5 -48t-44.5 -21q-12 0 -44.5 27t-53.5 27q-32 0 -32 -34q0 -28 65 -37t65 -61q0 -26 -20 -44.5t-46 -18.5q-45 0 -53.5 67.5t-44.5 67.5q-41 0 -41 -39q0 -14 27 -48 t27 -57q0 -51 -66 -51q-63 0 -63 51q0 18 28 50t28 55q0 39 -39 39q-34 0 -43 -67.5t-62 -67.5q-23 0 -43 21.5t-20 44.5q0 52 66 58.5t66 39.5q0 31 -32 31q-22 0 -53.5 -25.5t-46.5 -25.5q-60 0 -60 66zM283 465q0 -45 50 -45q44 0 44 48q0 45 -44 45q-50 0 -50 -48z" />
<glyph unicode="&#x2056;" horiz-adv-x="784" d="M82 429q0 44 32 76t77 32t77 -32t32 -76q0 -45 -32 -77t-77 -32t-77 32t-32 77zM402 109q0 44 32 76t77 32t77 -32t32 -76q0 -45 -32 -77t-77 -32t-77 32t-32 77zM402 749q0 44 32 76t77 32t77 -32t32 -76q0 -45 -32 -77t-77 -32t-77 32t-32 77z" />
<glyph unicode="&#x2057;" horiz-adv-x="1590" d="M29 751q0 8 6 26l239 707q18 54 94 54q40 0 73 -20q40 -23 40 -60q0 -16 -9 -32l-385 -667q-14 -25 -31 -25q-27 0 -27 17zM389 751q0 8 6 26l239 707q18 54 94 54q40 0 73 -20q40 -23 40 -60q0 -16 -9 -32l-385 -667q-14 -25 -31 -25q-27 0 -27 17zM749 751q0 8 6 26 l239 707q18 54 94 54q40 0 73 -20q40 -23 40 -60q0 -16 -9 -32l-385 -667q-14 -25 -31 -25q-27 0 -27 17zM1109 751q0 8 6 26l239 707q18 54 94 54q40 0 73 -20q40 -23 40 -60q0 -16 -9 -32l-385 -667q-14 -25 -31 -25q-27 0 -27 17z" />
<glyph unicode="&#x2058;" horiz-adv-x="1022" d="M82 429q0 44 32 76t77 32t77 -32t32 -76q0 -45 -32 -77t-77 -32t-77 32t-32 77zM402 109q0 44 32 76t77 32t77 -32t32 -76q0 -45 -32 -77t-77 -32t-77 32t-32 77zM402 749q0 44 32 76t77 32t77 -32t32 -76q0 -45 -32 -77t-77 -32t-77 32t-32 77zM722 429q0 44 32 76 t77 32t77 -32t32 -76q0 -45 -32 -77t-77 -32t-77 32t-32 77z" />
<glyph unicode="&#x2059;" horiz-adv-x="1186" d="M164 109q0 44 32 76t77 32t77 -32t32 -76q0 -45 -32 -77t-77 -32t-77 32t-32 77zM164 749q0 44 32 76t77 32t77 -32t32 -76q0 -45 -32 -77t-77 -32t-77 32t-32 77zM484 429q0 44 32 76t77 32t77 -32t32 -76q0 -45 -32 -77t-77 -32t-77 32t-32 77zM804 109q0 44 32 76 t77 32t77 -32t32 -76q0 -45 -32 -77t-77 -32t-77 32t-32 77zM804 749q0 44 32 76t77 32t77 -32t32 -76q0 -45 -32 -77t-77 -32t-77 32t-32 77z" />
<glyph unicode="&#x205a;" horiz-adv-x="546" d="M164 109q0 44 32 76t77 32t77 -32t32 -76q0 -45 -32 -77t-77 -32t-77 32t-32 77zM164 1249q0 44 32 76t77 32t77 -32t32 -76q0 -45 -32 -77t-77 -32t-77 32t-32 77z" />
<glyph unicode="&#x205b;" horiz-adv-x="1582" d="M82 582q0 44 32 76t77 32t77 -32t32 -76q0 -45 -32 -77t-77 -32t-77 32t-32 77zM682 -233q0 44 32 76t77 32t77 -32t32 -76q0 -45 -32 -77t-77 -32t-77 32t-32 77zM682 1398q0 44 32 76t77 32t77 -32t32 -76q0 -45 -32 -77t-77 -32t-77 32t-32 77zM1282 582q0 44 32 76 t77 32t77 -32t32 -76q0 -45 -32 -77t-77 -32t-77 32t-32 77z" />
<glyph unicode="&#x205c;" horiz-adv-x="1186" d="M68 429q0 41 37 41h447v447q0 37 41 37t41 -37v-447h445q39 0 39 -41t-39 -41h-445v-445q0 -39 -41 -39t-41 39v445h-447q-37 0 -37 41zM164 109q0 44 32 76t77 32t77 -32t32 -76q0 -45 -32 -77t-77 -32t-77 32t-32 77zM164 749q0 44 32 76t77 32t77 -32t32 -76 q0 -45 -32 -77t-77 -32t-77 32t-32 77zM804 109q0 44 32 76t77 32t77 -32t32 -76q0 -45 -32 -77t-77 -32t-77 32t-32 77zM804 749q0 44 32 76t77 32t77 -32t32 -76q0 -45 -32 -77t-77 -32t-77 32t-32 77z" />
<glyph unicode="&#x205d;" horiz-adv-x="546" d="M164 109q0 44 32 76t77 32t77 -32t32 -76q0 -45 -32 -77t-77 -32t-77 32t-32 77zM164 679q0 44 32 76t77 32t77 -32t32 -76q0 -45 -32 -77t-77 -32t-77 32t-32 77zM164 1249q0 44 32 76t77 32t77 -32t32 -76q0 -45 -32 -77t-77 -32t-77 32t-32 77z" />
<glyph unicode="&#x205e;" horiz-adv-x="546" d="M164 -273q0 44 32 76t77 32t77 -32t32 -76q0 -45 -32 -77t-77 -32t-77 32t-32 77zM164 297q0 44 32 76t77 32t77 -32t32 -76q0 -45 -32 -77t-77 -32t-77 32t-32 77zM164 867q0 44 32 76t77 32t77 -32t32 -76q0 -45 -32 -77t-77 -32t-77 32t-32 77zM164 1437q0 44 32 76 t77 32t77 -32t32 -76q0 -45 -32 -77t-77 -32t-77 32t-32 77z" />
<glyph unicode="&#x205f;" horiz-adv-x="455" />
<glyph unicode="&#x2060;" horiz-adv-x="0" />
<glyph unicode="&#x2061;" horiz-adv-x="0" />
<glyph unicode="&#x2062;" horiz-adv-x="0" />
<glyph unicode="&#x2063;" horiz-adv-x="0" />
<glyph unicode="&#x2064;" horiz-adv-x="0" />
<glyph unicode="&#x2066;" horiz-adv-x="0" />
<glyph unicode="&#x2067;" horiz-adv-x="0" />
<glyph unicode="&#x2068;" horiz-adv-x="0" />
<glyph unicode="&#x2069;" horiz-adv-x="0" />
<glyph unicode="&#x206a;" horiz-adv-x="0" />
<glyph unicode="&#x206b;" horiz-adv-x="0" />
<glyph unicode="&#x206c;" horiz-adv-x="0" />
<glyph unicode="&#x206d;" horiz-adv-x="0" />
<glyph unicode="&#x206e;" horiz-adv-x="0" />
<glyph unicode="&#x206f;" horiz-adv-x="0" />
<glyph unicode="&#x20a0;" horiz-adv-x="1372" d="M52 682q0 209 161 353q156 140 367 140q148 0 275 -110l70 90q16 20 30 20q25 0 25 -31v-340q0 -25 -32 -25q-26 0 -33 28q-9 40 -35 118q-39 86 -114 138.5t-168 52.5q-79 0 -154 -33q-221 -97 -221 -402q0 -315 239 -407q29 -11 57 -18v303q0 30 -30 39q-23 7 -93 7v59 h827l45 -315h-54q-19 153 -76 205t-212 52h-200q-37 0 -45 -5q-13 -7 -13 -40v-312h127q96 0 124.5 29.5t28.5 125.5h56v-369h-56q0 96 -28.5 125.5t-124.5 29.5h-127v-346q0 -33 13 -40q8 -5 45 -5h208q172 0 237 69q54 57 85 233h54l-67 -360h-847v58q123 0 123 49v345 q-194 22 -327 156q-140 140 -140 333z" />
<glyph unicode="&#x20a1;" horiz-adv-x="1335" d="M68 673q0 253 156.5 454t396.5 250v69h60v-60q35 4 71 4q31 0 59 -3v59h60v-71q120 -31 244 -154l99 144q17 25 31 25q21 0 21 -33l1 -503q0 -26 -31 -26q-27 0 -33 32q-12 60 -47 178q-89 223 -285 277v-1287q112 25 198.5 103.5t122.5 188.5q17 52 27 140q4 33 23 33 q24 0 24 -35q0 -173 -115 -311q-112 -134 -280 -176v-79h-60v69q-29 -4 -59 -4q-36 0 -71 4v-69h-60v78q-241 48 -398 250q-155 199 -155 453zM270 672q0 -497 351 -626v1254q-27 -9 -53 -22q-298 -145 -298 -606zM681 28q49 -11 96 -11q17 0 34 1v1308q-18 2 -36 2 q-46 0 -94 -10v-1290z" />
<glyph unicode="&#x20a2;" horiz-adv-x="1335" d="M68 673q0 289 196 501q201 216 488 216q193 0 363 -169l99 144q17 25 31 25q21 0 21 -33l1 -503q0 -26 -31 -26q-27 0 -33 32q-12 60 -47 178q-51 127 -147 205q-104 85 -234 85q-104 0 -207 -50q-298 -145 -298 -606q0 -476 322 -614q54 -23 106 -33v541q0 87 -45 109 q-24 11 -122 10v68l297 23v-235q76 235 262 235q60 0 107 -35q52 -38 52 -96q0 -40 -25.5 -67t-65.5 -27q-39 0 -65.5 26t-26.5 66q0 64 48 84q-6 2 -14 2q-136 0 -207 -140q-55 -111 -55 -262v-306q122 18 219 99.5t135 199.5q17 52 27 140q4 33 23 33q24 0 24 -35 q0 -205 -154 -353t-360 -148q-288 0 -488 215q-196 211 -196 501z" />
<glyph unicode="&#x20a3;" horiz-adv-x="1271" d="M68 0v61h75q64 0 88 10q39 18 39 73v171h-136q-22 0 -22 23v16q0 23 22 23h136v823q0 25 -6 42q-15 43 -196 39v62h1081l54 -442h-49q-24 217 -89 291q-77 89 -286 89h-252q-45 0 -61 -10q-22 -13 -22 -69v-421h140q132 0 174 51q36 45 36 180h48v-522h-48q0 136 -36 180 q-42 51 -174 51h-140v-344h379q23 0 23 -23v-16q0 -23 -23 -23h-379v-171q0 -27 7 -44q18 -43 246 -39v-61q-74 6 -135 6h-373q-49 0 -121 -6z" />
<glyph unicode="&#x20a4;" horiz-adv-x="1051" d="M71 97q0 65 44 106.5t110 41.5q35 0 94 -10q4 50 4 90q0 102 -13 269h-221v60h216q-7 83 -10 130h-206v60h203q-3 61 -3 113q0 171 92 293q102 134 268 134q117 0 182 -66q61 -62 61 -131q0 -27 -20.5 -50t-47.5 -23q-49 0 -61 61q-22 109 -24 112q-27 61 -114 61 q-192 0 -192 -294q0 -53 16 -210h364v-60h-359q3 -44 3 -80v-50h356v-60h-357q-6 -197 -65 -374q84 -28 167 -56q101 -30 172 -30q135 0 189 107q8 20 15 40q12 29 24 29q18 0 18 -20q0 -26 -22 -89q-78 -225 -264 -225q-85 0 -177 56q-32 19 -153 112q-81 -168 -182 -168 q-50 0 -78.5 35t-28.5 86zM108 104q0 -89 75 -89q88 0 126 154q-52 34 -96 34q-105 0 -105 -99z" />
<glyph unicode="&#x20a5;" horiz-adv-x="1775" d="M53 0v66q26 -1 43 -1q70 0 92 13q31 19 31 84v574q0 87 -44 109q-25 12 -122 10v68l301 23v-225q101 225 316 225q251 0 284 -210q58 130 181 183l286 440q11 17 35 17q40 0 40 -40q0 -13 -6 -22l-239 -368h15q158 0 228 -85q63 -77 63 -239v-42q-1 -27 -1 -41v-409 q0 -73 167 -64v-66q-198 6 -238 6t-244 -6v66q26 -1 43 -1q71 0 92 13q32 19 32 84v499q0 238 -157 238q-16 0 -32 -2l-257 -396v-346q0 -39 12 -60q21 -35 155 -29v-66q-198 6 -242 6q-35 0 -240 -6v16l-228 -351q-11 -17 -35 -17q-40 0 -40 40q0 13 6 22l464 714v237 q0 238 -158 238q-130 0 -213 -109q-76 -100 -76 -234v-397q0 -47 11 -64q22 -36 154 -29v-66q-198 6 -239 6q-35 0 -240 -6zM679 65h11q70 -1 92 13q32 19 32 84v111zM983 685l98 150q-66 -57 -98 -150z" />
<glyph unicode="&#x20a6;" horiz-adv-x="1480" d="M68 0v61q202 -1 202 140v393h-181v60h181v130h-181v60h181v389q0 29 -8.5 35t-39.5 9q-45 4 -154 4v62h342q30 0 48 -26l323 -473h373v301q0 139 -203 139v62q205 -6 232 -6q26 0 230 6v-62q-204 1 -204 -145v-295h174v-60h-174v-130h174v-60h-174v-562q0 -32 -26 -32 q-16 0 -34 26l-388 568h-436v-393q0 -141 203 -140v-61q-208 6 -230 6t-230 -6zM325 654h395l-89 130h-306v-130zM325 844h265l-246 360q-12 17 -19 25v-385zM822 784l89 -130h243v130h-332zM952 594l202 -296v296h-202z" />
<glyph unicode="&#x20a7;" horiz-adv-x="2335" d="M68 0v61q73 -1 55 -1q122 0 140 38q7 15 7 48v1051q0 32 -7 48q-18 41 -195 36v62h645q157 0 289 -80q146 -89 171 -231q68 114 70 285h53v-394h305v-68h-305v-594q0 -231 144 -231t144 265v36q0 32 27 32q21 0 30 -35q37 -146 92 -214q73 -90 206 -90q103 0 167 45 q74 52 74 150q0 147 -223 195q-128 28 -148 33q-82 25 -134 67q-91 75 -91 183q0 134 108 204q92 59 233 59q118 0 201 -61q60 61 80 61q24 0 24 -33v-254q0 -35 -29 -35q-23 0 -31 43l-6 60q-16 87 -84 134q-63 44 -155 44q-94 0 -158 -34q-81 -43 -81 -129t94 -130 q48 -22 169 -46q170 -33 243 -102q91 -86 91 -204q0 -146 -102 -226q-92 -72 -242 -72q-140 0 -237 93q-77 -93 -96 -93q-22 0 -22 33v57q-58 -90 -160 -90q-132 0 -203.5 78t-71.5 211v585q-51 -106 -177 -171q-117 -60 -243 -60h-285v-473q0 -32 7 -48q18 -39 198 -37v-61 q-72 6 -133 6h-326q-50 0 -122 -6zM439 670h222q313 0 313 307q0 161 -75.5 232.5t-237.5 71.5h-136q-53 0 -67 -12q-19 -14 -19 -67v-532z" />
<glyph unicode="&#x20a8;" horiz-adv-x="1764" d="M68 0v61q6 0 26 -1h27q125 0 142 35q7 15 7 46v1055q0 27 -6 45q-15 44 -196 40v62h568q183 0 333 -84q180 -100 180 -267q0 -43 -15 -84q89 52 220 52q118 0 201 -61q60 61 80 61q24 0 24 -33v-254q0 -35 -29 -35q-23 0 -31 43l-6 60q-16 87 -84 134q-63 44 -155 44 q-94 0 -158 -34q-81 -43 -81 -129t94 -130q48 -22 169 -46q170 -33 243 -102q91 -86 91 -204q0 -146 -102 -226q-92 -72 -242 -72q-211 0 -319 95q-101 89 -133 284q-23 141 -117 230q-70 67 -183 67h-177v-511q0 -29 7 -46q15 -37 197 -34v-61q-74 6 -143 6h-289 q-69 0 -143 -6zM439 696h169q339 0 339 296q0 183 -124 247q-86 44 -289 44q-95 0 -95 -64v-523zM805 671q163 -56 224 -182q23 -48 52 -200q25 -130 70 -184q67 -81 217 -81q103 0 167 45q74 52 74 150q0 147 -223 195q-128 28 -148 33q-82 25 -134 67q-91 75 -91 183 q0 39 10 73q-92 -68 -218 -99z" />
<glyph unicode="&#x20a9;" horiz-adv-x="2087" d="M68 1284v62q242 -6 333 -6q114 0 187 6v-62q-166 1 -166 -58q0 -15 4 -27l116 -355h399l76 232q-17 63 -35 127q-16 48 -50 64q-38 17 -136 17v62q242 -6 333 -6q114 0 187 6v-62q-165 1 -165 -58q0 -15 5 -30l115 -352h400l97 297q10 31 10 39q0 53 -63 81 q-48 22 -109 23v62q155 -6 234 -6q89 0 179 6v-62q-152 0 -195 -132l-101 -308h190v-60h-209l-43 -130h252v-60h-271l-196 -598q-13 -39 -38 -39q-26 0 -38 37l-196 600h-262l-193 -598q-13 -39 -41 -39q-25 0 -37 37l-196 600h-306v60h286l-43 130h-243v60h224l-117 357 q-6 19 -23 53q-25 33 -155 30zM561 784l43 -130h276l42 130h-361zM624 594l118 -363l118 363h-236zM931 654h223l-42 130h-139zM993 844h99l-50 153zM1291 784l42 -130h277l42 130h-361zM1353 594l119 -363l118 363h-237z" />
<glyph unicode="&#x20aa;" horiz-adv-x="1590" d="M150 0v1056h636q152 0 218 -73q61 -69 61 -223v-373h-151v366q0 101 -34 146q-39 53 -136 53h-443v-952h-151zM525 0v668h151v-563h443q96 0 136 52q34 45 34 145v754h151v-761q0 -123 -77 -209t-202 -86h-636z" />
<glyph unicode="&#x20ab;" horiz-adv-x="1159" d="M53 459q0 198 139.5 342.5t336.5 144.5q163 0 270 -133v332h-415q-22 0 -22 23v16q0 23 22 23h415v70q0 88 -47 109q-25 12 -120 9v67l308 23v-278h173q23 0 23 -23v-16q0 -23 -23 -23h-173v-960q0 -88 46 -110q25 -12 120 -9v-66l-313 -24v142q-111 -142 -287 -142 q-192 0 -324 147q-129 142 -129 336zM142 -226q0 23 22 23h889q23 0 23 -23v-16q0 -23 -23 -23h-889q-22 0 -22 23v16zM230 458q0 -197 61 -296q85 -138 224 -138q93 0 182 67q96 72 96 162v449q0 32 -24 68q-87 129 -231 129q-154 0 -243 -138q-65 -100 -65 -303z" />
<glyph unicode="&#x20ac;" horiz-adv-x="1656" d="M73 480l57 116h143q-4 37 -4 77t4 78h-200l57 116h166q65 231 257 377t432 146q304 0 515 -218l-54 -115q-180 216 -461 216q-192 0 -348.5 -112t-218.5 -294h938l-55 -116h-910q-6 -44 -6 -78q0 -33 6 -77h838l-55 -116h-756q62 -182 218.5 -294t348.5 -112 q276 0 455 209v-162q-199 -164 -455 -164q-240 0 -432 146t-257 377h-223z" />
<glyph unicode="&#x20ad;" horiz-adv-x="1519" d="M68 0v61q8 0 27 -1h28q125 0 141 40q6 15 6 44v551h-136q-22 0 -22 23v16q0 23 22 23h136v453q0 27 -7 41q-17 35 -195 33v62q70 -6 119 -6h342q50 0 120 6v-62q-9 0 -28 1t-29 1q-126 0 -142 -40q-6 -15 -6 -44v-445h201l417 397q36 34 36 67q0 61 -91 63v62 q69 -6 180 -6q186 0 239 6v-62q-160 -2 -281 -118l-356 -340l47 -69h387q23 0 23 -23v-16q0 -23 -23 -23h-345l367 -539q42 -62 89 -81q36 -14 117 -14v-61q-127 6 -324 6q-112 0 -183 -6v61q117 -1 117 59q0 22 -31 68l-343 507h-36l-207 -197v-359q0 -28 9 -45 q18 -34 196 -33v-61q-71 6 -120 6h-347q-43 0 -114 -6zM444 566l136 129h-136v-129z" />
<glyph unicode="&#x20ae;" horiz-adv-x="1413" d="M68 901l36 442h1206l36 -442h-49q-22 262 -88.5 321.5t-330.5 59.5q-46 0 -62 -9q-23 -14 -23 -56v-554l429 91v-60l-429 -91v-130l429 91v-60l-429 -91v-267q0 -25 10 -47q19 -41 277 -38v-61q-84 6 -154 6h-439q-71 0 -155 -6v61q9 0 38 -1h38q184 0 202 39q8 17 8 47 v229l-429 -91v60l429 91v130l-429 -91v60l429 91v593q0 43 -29 56q-17 8 -66 8q-256 0 -321 -62.5t-86 -318.5h-48z" />
<glyph unicode="&#x20af;" horiz-adv-x="724" d="M40 780l248 599h149l247 -599l-33 -50h-576zM118 -36v649h260q258 0 258 -208q0 -217 -271 -217h-111v-224h-136zM206 846h312l-153 375h-6zM254 302h89q154 0 154 103q0 94 -141 94h-102v-197z" />
<glyph unicode="&#x20b0;" horiz-adv-x="1107" d="M60 106l307 528l106 -248l97 285q-122 176 -161 252q-78 151 -78 285q0 126 79 204t205 78q91 0 142.5 -51.5t51.5 -142.5q0 -184 -129 -531q175 -258 235 -370q126 -236 126 -410q0 -145 -124 -232q-111 -78 -262 -78l-6 34q95 18 157 109q58 85 58 185q0 238 -238 585 l-172 -491l-112 269l-148 -260h-134zM481 1204q0 -151 141 -354q90 285 90 431q0 126 -89 126q-72 0 -111 -69q-31 -56 -31 -134z" />
<glyph unicode="&#x20b1;" horiz-adv-x="1472" d="M68 0v61q73 -1 55 -1q122 0 140 38q7 15 7 48v718h-99v60h99v130h-99v60h99v83q0 32 -7 48q-18 41 -195 36v62h695q131 0 250 -59q129 -63 183 -170h208v-60h-186q10 -37 10 -77q0 -27 -5 -53h181v-60h-199q-47 -112 -176 -181q-119 -64 -250 -64h-335v-473q0 -32 7 -48 q18 -39 198 -37v-61q-72 6 -133 6h-326q-50 0 -122 -6zM439 670h272q255 0 301 194h-573v-194zM439 924h583q2 25 2 53q0 42 -5 77h-580v-130zM439 1114h567q-54 167 -295 167h-186q-53 0 -67 -12q-19 -14 -19 -67v-88z" />
<glyph unicode="&#x20b2;" horiz-adv-x="1472" d="M68 673q0 274 179 481q182 211 449 234v58h60v-56q195 -1 361 -169l99 144q17 25 31 25q21 0 21 -33l1 -503q0 -26 -31 -26q-27 0 -33 32q-12 60 -46 177q-51 128 -147 206q-105 85 -235 85q-10 0 -21 -1v-1309q16 -1 32 -1q124 0 208 56q98 65 98 183v126q0 40 -9 56 q-23 40 -175 40h-63v59q65 -5 194 -5q184 0 364 5v-59q-80 0 -97 -6q-40 -15 -40 -81v-360q0 -29 -16 -29q-42 0 -127 122q-97 -167 -369 -167v-65h-60v68q-269 23 -450 232q-178 206 -178 481zM270 673q0 -456 312 -609q53 -26 114 -38v1294q-62 -11 -117 -38 q-309 -152 -309 -609z" />
<glyph unicode="&#x20b3;" horiz-adv-x="1374" d="M68 0v61q151 -1 195 136l64 197h-156v60h175l42 130h-217v60h237l235 725q14 42 45 42t45 -42l234 -725h237v-60h-218l42 -130h176v-60h-157l80 -248q6 -20 25 -56q27 -31 156 -29v-61q-235 6 -345 6t-182 -6v61q166 -1 166 59q0 16 -59 199l-24 75h-473l-61 -188 q-9 -28 -9 -42q0 -51 53 -79q42 -23 99 -24v-61q-183 6 -223 6q-82 0 -182 -6zM410 454h434l-42 130h-350zM471 644h312l-157 481z" />
<glyph unicode="&#x20b4;" horiz-adv-x="1169" d="M68 524v60h139q47 79 126 130h-265v60h412q73 15 216 52q199 61 199 250q0 109 -74.5 183.5t-183.5 74.5q-279 0 -360 -290q-8 -41 -25 -122q-5 -22 -23 -22q-28 0 -28 28v429q0 33 24 33q12 0 29 -27l69 -112q142 139 316 139q160 0 271 -111t111 -271q0 -131 -80 -234 h160v-60h-219q-53 -43 -118 -67q-6 -2 -252 -63h589v-60h-724q-21 -17 -40 -42q-62 -80 -62 -182q0 -115 75 -199t189 -84q194 0 311 107t117 250q0 72 30 72q24 0 24 -29v-431q0 -29 -20 -29q-14 0 -30 26l-72 111q-126 -137 -362 -137q-167 0 -279 123q-109 119 -109 287 q0 83 28 157h-109z" />
<glyph unicode="&#x20b5;" horiz-adv-x="1335" d="M68 673q0 281 187 490q190 213 466 226v57h60v-57q174 -9 334 -168l99 144q17 25 31 25q22 0 22 -33v-503q0 -26 -31 -26q-27 0 -33 32q-12 60 -47 178q-50 126 -145 203q-103 85 -230 87v-1311q139 1 253.5 86t157.5 217q17 52 27 140q4 33 23 33q24 0 24 -35 q0 -197 -143.5 -343t-341.5 -157v-66h-60v66q-277 12 -467 225q-186 208 -186 490zM270 672q0 -476 322 -614q66 -28 129 -37v1304q-78 -10 -153 -47q-298 -145 -298 -606z" />
<glyph unicode="&#x20b6;" horiz-adv-x="1355" d="M53 0v66q10 0 33 -1t35 -1q98 0 98 98v693h-166v68h166v354q0 87 -44 108q-23 11 -122 10v67l306 23v-562h332q107 0 169 151q47 116 49 243h53v-394h305v-68h-305v-594q0 -231 144 -231q145 0 145 290q0 18 -1 67h52v-122q0 -113 -48 -193q-58 -96 -164 -96 q-132 0 -203.5 78t-71.5 211v590h-456v-693q0 -50 12 -67q15 -21 65 -27q22 -3 91 -2v-66q-220 6 -238 6q-37 0 -236 -6z" />
<glyph unicode="&#x20b7;" horiz-adv-x="1107" d="M52 334q0 44 28 85q31 45 73 45q78 0 86 -88q56 89 111 89q85 0 119 -94q49 94 120 94q131 0 131 -216v-206q194 69 194 257q0 102 -62 182q-55 71 -167 100q-88 17 -260 65q-116 43 -186.5 140.5t-70.5 220.5q0 160 111 271t271 111q174 0 316 -139l69 112q17 27 29 27 q24 0 24 -33v-429q0 -28 -28 -28q-18 0 -23 22q-7 41 -25 122q-80 290 -360 290q-109 0 -183.5 -74.5t-74.5 -183.5q0 -188 199 -250q85 -19 252 -62q137 -41 216 -147.5t79 -249.5q0 -157 -91 -261q-84 -95 -229 -131v-40h-89v25q-31 -3 -68 -3q-40 0 -81 6v-28h-89v48 q-82 24 -149 63v-111h-89v177q-103 97 -103 222zM97 315q0 -70 58 -132v142q0 59 -20 59q-38 0 -38 -69zM244 113q66 -40 149 -66l1 285q0 103 -49 103q-51 0 -80 -82q-21 -62 -21 -126v-114zM482 25q45 -8 78 -8q35 0 71 5v302q0 111 -48 111q-51 0 -80 -82 q-21 -62 -21 -126v-202z" />
<glyph unicode="&#x20b8;" horiz-adv-x="1200" d="M70 904v156h1060v-156h-452v-904h-156v904h-452zM70 1187v156h1060v-156h-1060z" />
<glyph unicode="&#x20b9;" horiz-adv-x="1092" d="M68 956l59 94h427q-20 96 -93 149q-69 50 -169 50h-224l59 94h897l-59 -94h-386q137 -79 174 -199h271l-59 -94h-201q-9 -108 -129 -192q-101 -70 -223 -93q141 -48 202 -120q49 -58 68 -166q17 -113 34 -227q30 -158 118 -158q64 0 97 59q18 35 34 116q6 31 24 31 q24 0 24 -33q0 -86 -49 -148q-54 -68 -137 -68q-161 0 -248 81q-70 65 -88 237q-21 201 -50 257q-64 120 -258 120v44q146 0 251 58q130 71 130 202h-496z" />
<glyph unicode="&#x20ba;" horiz-adv-x="1120" d="M86 587v106l229 83v59l-229 -83v106l229 83v399h134v-350l411 149v-106l-411 -149v-59l411 149v-106l-411 -149v-581q199 25 334 176.5t135 355.5h134q0 -278 -196 -474t-474 -196q-37 0 -67 3v667z" />
<glyph unicode="&#x20bb;" horiz-adv-x="1977" d="M40 427q37 64 102 119q76 66 137 66q78 0 117 -171q24 -105 28 -235l4 -4h12q48 103 96 207q70 136 128 176q15 8 40 29q12 14 31 96q19 79 19 104q0 17 -12 17q-19 0 -56.5 -7.5t-56.5 -7.5q-298 0 -298 236q0 90 75 148q70 54 162 54q234 0 291 -330l312 124 q189 70 324 70q191 0 316 -153q116 -143 116 -339q0 -229 -143 -426q-156 -215 -377 -215q-91 0 -120 129q-8 31 -25 238q-10 129 -53 129q-62 0 -158 -207q-67 -144 -105 -273q-21 -5 -53 -5q-60 0 -82 8q-7 361 -56 456h-1l-5 -2q-75 -267 -75 -439q0 -379 282 -379 q84 0 165 43q97 50 97 126q0 11 -7.5 31.5t-7.5 31.5q0 52 53 52q73 0 73 -78q0 -67 -85 -147q-74 -69 -148 -95q-65 -23 -147 -23q-179 0 -279 131q-91 119 -91 304q0 178 90 468l-2 2q-82 -6 -244 -492q-26 -3 -70 -3q-36 0 -61 11q0 17 1 56v56q0 385 -96 385 q-54 0 -120 -101zM434 1045q0 -81 69 -127q61 -40 146 -40q71 0 110 15q2 13 2 29q0 93 -52 176q-59 94 -146 94q-61 0 -95 -42.5t-34 -104.5zM788 597q69 -36 101 -135q18 -57 32 -176q11 -97 26 -115q63 127 126 255q102 176 188 176q96 0 129 -136q8 -31 28 -252 q13 -136 59 -136h14q36 0 80 17q135 52 204 218q57 135 57 303q0 171 -97 296q-105 136 -271 136q-125 0 -312 -69l-302 -120q-4 -102 -62 -262z" />
<glyph unicode="&#x20bc;" horiz-adv-x="1700" d="M90 0q3 373 164 685q192 371 521 427v164l145 43v-213q110 -6 223 -72q227 -133 356 -455q110 -276 112 -579h-188q0 631 -273 854q-105 86 -221 100l8 -844l-186 -78l23 921q-105 -6 -212 -97q-93 -80 -147 -187q-117 -231 -137 -669h-188z" />
<glyph unicode="&#x20bd;" horiz-adv-x="1315" d="M68 378v62h252v168h-252v62h252v527q0 32 -7 48q-18 41 -195 36v62h655q174 0 311 -94q154 -106 154 -272q0 -159 -154 -269q-141 -100 -305 -100h-285v-168h499v-62h-499v-232q0 -32 7 -48q18 -39 198 -37v-61q-72 6 -133 6h-326q-50 0 -122 -6v61q73 -1 55 -1 q122 0 140 38q7 15 7 48v232h-252zM489 670h232q313 0 313 307q0 161 -75.5 232.5t-237.5 71.5h-146q-53 0 -67 -12q-19 -14 -19 -67v-532z" />
<glyph unicode="&#x2100;" horiz-adv-x="1419" d="M40 725q0 125 165 194q99 41 289 51v43q0 73 -44 122.5t-116 49.5q-94 0 -150 -47q70 -13 70 -74q0 -34 -25.5 -54.5t-59.5 -20.5q-84 0 -84 76q0 83 89 132q74 40 164 40q142 0 227 -82q60 -58 60 -174v-284q0 -62 49 -62q55 0 47 170h62v-90q0 -62 -40 -103t-102 -41 q-98 0 -129 97q-67 -105 -206 -105q-96 0 -170 34q-96 44 -96 128zM183 727q0 -50 43 -82q38 -30 90 -30q75 0 126.5 49t51.5 124v132q-116 -5 -198 -43q-113 -52 -113 -150zM226 -291l1155 1746h89l-1155 -1746h-89zM750 48q0 144 106 244q105 97 250 97q91 0 164 -36 q92 -45 92 -127q0 -76 -83 -76q-84 0 -84 75q0 56 60 72q-56 36 -147 36q-41 0 -85 -22q-121 -61 -121 -260q0 -196 128 -258q45 -22 88 -22q83 0 132 43q26 22 56 78q23 43 43 43q31 0 31 -25q0 -12 -8 -30q-75 -165 -268 -165q-142 0 -248 96t-106 237z" />
<glyph unicode="&#x2101;" horiz-adv-x="1433" d="M40 725q0 125 165 194q99 41 289 51v43q0 73 -44 122.5t-116 49.5q-94 0 -150 -47q70 -13 70 -74q0 -34 -25.5 -54.5t-59.5 -20.5q-84 0 -84 76q0 83 89 132q74 40 164 40q142 0 227 -82q60 -58 60 -174v-284q0 -62 49 -62q55 0 47 170h62v-90q0 -62 -40 -103t-102 -41 q-98 0 -129 97q-67 -105 -206 -105q-96 0 -170 34q-96 44 -96 128zM183 727q0 -50 43 -82q38 -30 90 -30q75 0 126.5 49t51.5 124v132q-116 -5 -198 -43q-113 -52 -113 -150zM226 -291l1155 1746h89l-1155 -1746h-89zM850 -39q0 31 30 31q24 0 32 -30q27 -97 69 -141 q52 -54 145 -54q170 0 170 120q0 88 -159 119q-97 19 -112 23q-63 16 -103 46q-72 53 -72 129q0 97 89 146q71 39 176 39q87 0 150 -38q41 38 61 38q28 0 28 -32v-169q0 -33 -32 -33q-23 0 -31 29q-4 24 -7 48q-22 110 -169 110q-169 0 -169 -98q0 -53 72 -80 q31 -12 117 -27q131 -22 187 -70q71 -60 71 -144q0 -105 -84 -161q-72 -47 -183 -47q-103 0 -177 58q-53 -58 -73 -58q-26 0 -26 32v214z" />
<glyph unicode="&#x2102;" horiz-adv-x="1389" d="M54 678q0 318 192.5 516.5t509.5 198.5q97 0 221 -47q119 -45 177 -45q41 0 54 46t39 46q32 0 32 -30v-397q0 -34 -32 -34q-22 0 -35 26q-13 35 -44 102q-55 100 -176 181q-127 84 -236 84q-192 0 -286 -241q-69 -176 -69 -406q0 -620 379 -620q249 0 418 156 q22 23 68 68q15 14 28 14q42 0 42 -38q0 -11 -7 -22q-80 -121 -254 -200q-163 -73 -319 -73q-318 0 -510 198t-192 517zM122 678q0 -224 103 -384q110 -171 317 -233q-210 159 -210 617q0 412 180 607q-192 -69 -294 -237q-96 -158 -96 -370zM1110 1236q62 -56 100 -112v124 q-25 -15 -62 -15q-15 0 -38 3z" />
<glyph unicode="&#x2103;" horiz-adv-x="2024" d="M98 1078q0 129 89 218.5t218 89.5t218.5 -89.5t89.5 -218.5q0 -128 -90 -217.5t-218 -89.5t-217.5 89.5t-89.5 217.5zM182 1079q0 -93 65 -158t158 -65t158 65t65 158q0 94 -64.5 158.5t-158.5 64.5t-158.5 -64.5t-64.5 -158.5zM758 673q0 289 196 501q201 216 488 216 q193 0 363 -169l99 144q17 25 31 25q21 0 21 -33l1 -503q0 -26 -31 -26q-27 0 -33 32q-12 60 -47 178q-51 127 -147 205q-104 85 -234 85q-104 0 -207 -50q-298 -145 -298 -606q0 -476 322 -614q96 -41 185 -41q140 0 256 85t159 218q17 52 27 140q4 33 23 33q24 0 24 -35 q0 -205 -154 -353t-360 -148q-288 0 -488 215q-196 211 -196 501z" />
<glyph unicode="&#x2104;" horiz-adv-x="1370" d="M67 721q0 171 99.5 309.5t257.5 176.5q0 30 -7 44q-17 34 -195 33v62q71 -6 126 -6h383q47 0 120 6v-62q-11 0 -33 1t-33 1q-156 0 -177 -36q-8 -14 -10 -35q106 -16 176 -68q83 -62 83 -157q0 -100 -97 -100q-42 0 -70.5 28t-28.5 70q0 94 100 99q-60 59 -163 74v-867 q89 13 145 76q30 34 65 110q26 56 45 56q29 0 29 -22t-27 -75q-86 -168 -257 -197v-102q0 -52 20 -67q15 -12 66 -12h173q212 0 303 123q70 96 94 324h49l-55 -508h-1026v61q8 0 27 -1h26q124 0 142 35q7 14 7 46v107q-157 37 -257 171t-100 302zM244 726q0 -307 178 -402 l2 -1v814q-180 -90 -180 -411z" />
<glyph unicode="&#x2105;" horiz-adv-x="1530" d="M40 896q0 144 106 244q105 97 250 97q91 0 164 -36q92 -45 92 -127q0 -76 -83 -76q-84 0 -84 75q0 56 60 72q-56 36 -147 36q-41 0 -85 -22q-121 -61 -121 -260q0 -196 128 -258q45 -22 88 -22q83 0 132 43q26 22 56 78q23 43 43 43q31 0 31 -25q0 -12 -8 -30 q-75 -165 -268 -165q-142 0 -248 96t-106 237zM196 -291l1155 1746h89l-1155 -1746h-89zM760 46q0 145 112 245q108 98 254 98q145 0 253 -98q112 -101 112 -245q0 -143 -114 -239q-108 -92 -253 -92q-144 0 -251 92q-113 97 -113 239zM912 57q0 -133 40 -195 q59 -91 174 -91q120 0 177 100q34 60 34 186q0 132 -41 192q-60 88 -172 88q-117 0 -175 -91q-37 -58 -37 -189z" />
<glyph unicode="&#x2106;" horiz-adv-x="1735" d="M40 896q0 144 106 244q105 97 250 97q91 0 164 -36q92 -45 92 -127q0 -76 -83 -76q-84 0 -84 75q0 56 60 72q-56 36 -147 36q-41 0 -85 -22q-121 -61 -121 -260q0 -196 128 -258q45 -22 88 -22q83 0 132 43q26 22 56 78q23 43 43 43q31 0 31 -25q0 -12 -8 -30 q-75 -165 -268 -165q-142 0 -248 96t-106 237zM196 -291l1155 1746h89l-1155 -1746h-89zM870 299v65l255 17v-483q0 -75 28 -103t103 -28q85 0 136 65q48 59 48 146v252q0 56 -39 67q-11 3 -86 2v65l256 17v-517q0 -56 39 -67q11 -3 86 -2v-63l-251 -18v103 q-71 -102 -197 -102q-142 0 -198 55.5t-56 195.5v250q0 67 -30 79q-12 5 -94 4z" />
<glyph unicode="&#x2107;" horiz-adv-x="1259" d="M14 303q0 208 155 340q131 111 353 155q-124 41 -175 81q-82 62 -82 166q0 177 174 269q139 73 334 73t322 -76q115 -69 115 -130q0 -29 -80 -89.5t-112 -60.5q-3 0 -7.5 1t-6.5 1q38 22 38 69q0 98 -85 164q-79 61 -180 61q-116 0 -216 -69q-112 -77 -112 -188 q0 -124 128 -196q106 -59 241 -59q67 0 115 24l8 -8q-28 -83 -97 -83q-360 0 -508 -164q-89 -98 -89 -203q0 -149 131 -251q121 -95 274 -95q186 0 318.5 129t132.5 315q0 83 -46 117q80 0 134 -54t54 -134q0 -241 -255 -355q-189 -84 -466 -84q-207 0 -337 64 q-173 85 -173 270z" />
<glyph unicode="&#x2108;" horiz-adv-x="1110" d="M30 90q0 74 59 135t133 61q13 0 13 -18q0 -7 -15.5 -38.5t-15.5 -53.5q0 -101 181 -101q118 0 202 66q91 72 91 187q0 171 -235 211q-32 2 -65 4q-49 5 -49 20q0 32 61 66q51 29 90 34q20 1 61 5q132 15 233 114q132 130 132 275q0 104 -98 162q-82 50 -193 50 q-109 0 -191 -65q-60 -61 -119 -122q-66 -65 -135 -65q-13 0 -13 16q0 10 8 22q93 142 257 236q168 96 334 96q124 0 216 -59q108 -68 108 -185q0 -150 -134 -304q-116 -131 -270 -208q176 -67 176 -218q0 -188 -216 -329q-194 -125 -393 -125q-213 0 -213 131z" />
<glyph unicode="&#x2109;" horiz-adv-x="1971" d="M98 1078q0 129 89 218.5t218 89.5t218.5 -89.5t89.5 -218.5q0 -128 -90 -217.5t-218 -89.5t-217.5 89.5t-89.5 217.5zM182 1079q0 -93 65 -158t158 -65t158 65t65 158q0 94 -64.5 158.5t-158.5 64.5t-158.5 -64.5t-64.5 -158.5zM768 0v61h75q64 0 88 10q39 18 39 73v1056 q0 25 -6 42q-15 43 -196 39v62h1081l54 -442h-49q-24 217 -89 291q-77 89 -286 89h-252q-45 0 -61 -10q-22 -13 -22 -69v-501h170q132 0 174 51q36 45 36 180h48v-522h-48q0 136 -36 180q-42 51 -174 51h-170v-497q0 -27 7 -44q18 -43 246 -39v-61q-74 6 -135 6h-373 q-49 0 -121 -6z" />
<glyph unicode="&#x210a;" horiz-adv-x="1004" d="M-46 -339q0 92 174 187q55 30 258 112l74 166q-125 -145 -247 -145q-80 0 -130 63q-46 58 -46 140q0 76 38 178l-48 -59l-27 17q51 71 125 152q219 238 421 238q87 0 124 -54q27 -39 24 -77l59 107l247 20q-231 -391 -370 -682q207 74 381 305l28 -17 q-194 -261 -427 -325q-76 -160 -207 -283q-155 -146 -306 -146q-55 0 -96 24q-49 28 -49 79zM19 -356q0 -25 21.5 -41t46.5 -16q131 0 282 333q-350 -162 -350 -276zM196 44q0 -29 31 -29q79 0 172 89q72 69 125 159q135 231 135 312q0 97 -79 97q-94 0 -243 -267 q-141 -252 -141 -361z" />
<glyph unicode="&#x210b;" horiz-adv-x="1688" d="M-68 250q0 76 48.5 134.5t123.5 58.5q50 0 89 -29q44 -31 44 -79q0 -55 -45 -91q-13 -10 -108 -33q-70 -18 -70 -66q0 -62 98 -101q77 -31 151 -31q206 0 337 229q63 110 143 274q-185 -73 -358 -215l-19 23q174 149 394 229q169 348 361 576q-169 -132 -210 -161 q-160 -111 -231 -111q-40 0 -66 27t-26 67q0 62 64 149t64 92q0 18 -23 18q-127 0 -416 -354l-25 15q287 369 453 369q45 0 78 -32.5t33 -77.5q0 -69 -60.5 -146t-60.5 -83q0 -9 13 -9q29 0 104 47q32 20 131 95q130 102 394 299l17 -21q-112 -110 -192 -316 q-60 -177 -121 -353l-3 -8l221 71q124 205 212 314q334 414 562 414q64 0 103.5 -42.5t39.5 -107.5q0 -138 -187 -283q-130 -101 -312 -182q-49 -21 -165 -68q-257 -585 -257 -708q0 -31 40 -31q87 0 222 122q105 96 178 200l28 -17q-91 -123 -191 -211q-141 -124 -243 -124 q-94 0 -143 87q-39 70 -39 171q0 107 39 220q23 66 91 204q-108 -31 -209 -65q-141 -429 -480 -566q-129 -52 -269 -52q-138 0 -235 64q-112 74 -112 205zM1531 789q209 87 323 174q144 111 227 285q29 60 29 96q0 26 -23.5 43t-50.5 17q-152 0 -291 -210 q-88 -132 -214 -405z" />
<glyph unicode="&#x210c;" horiz-adv-x="1358" d="M57 78l222 176l153 -119q90 67 90 148q0 91 -78 198q-72 92 -145 185q-78 116 -78 231q0 151 138 285q125 109 249 217q112 -119 238 -119q117 0 172 96l31 -10q-135 -211 -291 -211q-89 0 -244 111q-152 -106 -152 -254q0 -161 125 -279q221 118 336 219 q203 -63 324 -201q131 -150 131 -354q0 -194 -114 -341q-62 -80 -226 -206q-139 -107 -166 -174q-144 162 -276 162q-88 0 -156 -82l-23 19q175 192 304 192q105 0 245 -127q242 164 242 459q0 169 -100 323q-112 173 -269 173q-81 0 -225 -97q143 -169 143 -290t-129 -238 q-111 -91 -221 -182l-151 121l-74 -58z" />
<glyph unicode="&#x210d;" horiz-adv-x="1676" d="M53 39q0 36 57 36q78 0 96.5 19t18.5 92v982q0 69 -31 87q-20 11 -92 11q-49 0 -49 40q0 37 33 37h599q35 0 35 -37q0 -38 -57 -38q-78 0 -96.5 -19t-18.5 -92v-429h467v440q0 69 -31 88q-20 11 -92 11q-48 0 -48 39q0 37 33 37h599q35 0 35 -37q0 -38 -57 -38 q-78 0 -97 -19t-19 -92v-982q0 -69 30 -87q20 -12 95 -12q48 0 48 -37q0 -39 -35 -39h-599q-33 0 -33 39q0 36 55 36q78 0 97 19t19 92v446h-467v-457q0 -69 30 -87q20 -12 94 -12q48 0 48 -37q0 -39 -35 -39h-599q-33 0 -33 39zM282 1268q18 -38 18 -100v-982 q0 -71 -17 -111h208q-18 38 -18 100v982q0 72 17 111h-208zM1072 1268q18 -38 18 -100v-982q0 -72 -17 -111h208q-18 38 -18 100v982q0 72 17 111h-208z" />
<glyph unicode="&#x210e;" horiz-adv-x="1162" d="M142 33q0 22 7 50l317 1262q5 20 5 36q0 37 -78 40.5t-78 24.5q0 24 21 39q6 4 131 15q122 11 147 11q27 0 27 -22q0 3 -9 -33l-166 -669q135 172 322 172q111 0 175 -58q67 -61 67 -171q0 -112 -137 -489q-36 -99 -36 -150q0 -72 58 -72q86 0 145 95q31 49 72 171 q15 44 33 44q23 0 23 -20q0 -19 -26 -87q-94 -246 -253 -246q-76 0 -124.5 49.5t-48.5 125.5q0 37 30 120q133 368 133 492q0 152 -117 152q-137 0 -242 -111q-94 -98 -130 -240l-118 -473q-15 -61 -26 -78q-21 -37 -67 -37q-57 0 -57 57z" />
<glyph unicode="&#x210f;" horiz-adv-x="1162" d="M142 33q0 22 7 50l253 1009l-162 -59q-19 -7 -28 -7q-29 0 -29 35q0 19 36 32l202 74l45 178q5 20 5 36q0 37 -78 40.5t-78 24.5q0 24 21 39q6 4 131 15q122 11 147 11q27 0 27 -22q0 3 -9 -33l-58 -234l376 137q19 7 28 7q29 0 29 -35q0 -19 -36 -32l-415 -151l-90 -361 q135 172 322 172q111 0 175 -58q67 -61 67 -171q0 -112 -137 -489q-36 -99 -36 -150q0 -72 58 -72q86 0 145 95q31 49 72 171q15 44 33 44q23 0 23 -20q0 -19 -26 -87q-94 -246 -253 -246q-76 0 -124.5 49.5t-48.5 125.5q0 37 30 120q133 368 133 492q0 152 -117 152 q-137 0 -242 -111q-94 -98 -130 -240l-118 -473q-15 -61 -26 -78q-21 -37 -67 -37q-57 0 -57 57z" />
<glyph unicode="&#x2110;" horiz-adv-x="1185" d="M-54 245q0 80 51.5 137t130.5 57q51 0 87.5 -32.5t36.5 -82.5q0 -65 -57 -92q-53 -16 -107 -31q-57 -19 -57 -64q0 -59 91 -97q73 -30 143 -30q164 0 277 135q46 53 165 275q-134 35 -216 120q-91 94 -91 225q0 211 226 381q166 125 418.5 205.5t507.5 83.5l1 -31 q-139 0 -225 -113q-70 -92 -136 -286q-25 -76 -90 -310q-25 -91 -75 -215q115 48 186 130q80 94 80 209q0 37 -12 106l31 3q13 -71 13 -108q0 -133 -96 -239q-86 -95 -221 -142q-154 -311 -459 -418q-128 -45 -258 -45q-136 0 -233 65q-112 74 -112 204zM516 636 q0 -152 205 -189q87 181 173 361q104 204 208 332q133 162 305 257q-130 -17 -239 -45q-202 -52 -372 -209q-165 -152 -246 -351q-34 -84 -34 -156z" />
<glyph unicode="&#x2111;" horiz-adv-x="1257" d="M23 188q31 74 97 123t142 49q98 0 185 -80q70 -74 140 -149q85 -80 177 -80q86 0 161 64q79 67 79 151q0 104 -105.5 275t-105.5 274q0 84 58 147.5t140 63.5q86 0 164 -78l-20 -28q-68 63 -119 63q-34 0 -61 -22.5t-27 -55.5q0 -51 109.5 -219.5t109.5 -282.5 q0 -186 -173 -305q-153 -106 -347 -106q-132 0 -227 71q-38 28 -127 132q-61 71 -111 71q-63 0 -101 -80zM102 1112q0 126 107 212q99 79 229 79q107 0 213 -58q19 -11 161 -107q84 -58 138 -58q67 0 115 55q41 48 55 119l27 -15q-18 -110 -94 -186q-80 -80 -189 -80 q-113 0 -262.5 108.5t-253.5 108.5q-84 0 -142.5 -55.5t-58.5 -138.5q0 -72 51.5 -120t123.5 -48q32 0 57 8l8 -33q-34 -12 -70 -12q-93 0 -154 64t-61 157z" />
<glyph unicode="&#x2112;" horiz-adv-x="1465" d="M86 124q0 68 70 103q56 28 131 28q129 0 342 -86q74 141 171 364q-34 -3 -57 -3q-162 0 -282.5 113.5t-120.5 274.5q0 217 240 373q215 139 444 139q80 0 173 -23l-9 -29q-86 20 -160 20q-238 0 -401 -165q-169 -171 -169 -397q0 -134 77 -204.5t212 -70.5q27 0 66 5 q287 667 584 826q90 48 161 48q77 0 131.5 -51.5t54.5 -128.5q0 -162 -226 -385q-193 -190 -377 -278l-44 -21q-59 -165 -125 -262q-75 -110 -205 -205q173 -82 277 -82q202 0 428 307l26 -17q-250 -325 -480 -325q-106 0 -297 89q-164 -100 -360 -100q-91 0 -169 29 q-106 39 -106 114zM117 125q0 -60 92 -92q66 -22 142 -22q119 0 188 48q23 16 70 79q-199 87 -322 87q-55 0 -106 -23q-64 -29 -64 -77zM1108 616q360 171 513 558q37 94 37 143q0 93 -103 93q-126 0 -227 -161q-73 -118 -139 -337q-40 -148 -81 -296z" />
<glyph unicode="&#x2113;" horiz-adv-x="863" d="M85 165q0 17 144 157q-12 81 -12 154q0 344 207 735q63 119 156 209q117 112 225 112q140 0 140 -185q0 -312 -361 -725q-56 -64 -147 -152q-20 -19 -58 -58q-7 -8 -7 -58q0 -102 39 -190q51 -113 140 -113q107 0 297 188h7q20 0 20 -23q0 -43 -128 -135 q-112 -81 -200 -81q-245 0 -306 255q-107 -112 -128 -112q-28 0 -28 22zM385 493q507 539 507 872q0 116 -78 116q-90 0 -213 -249q-84 -168 -137 -338q-75 -240 -79 -401z" />
<glyph unicode="&#x2114;" horiz-adv-x="1670" d="M39 1122q0 41 68 41h112v114q0 87 -44 108q-23 11 -122 10v67l306 23v-322h371v114q0 88 -47 109q-25 12 -120 9v67l307 23v-322h377q68 0 68 -41t-68 -41h-377v-274q121 139 295 139q191 0 324 -148q128 -143 128 -337q0 -199 -139 -342t-337 -143q-179 0 -281 157 q-24 -46 -77 -133h-53v1081h-371v-919q0 -50 12 -67q15 -21 65 -27q22 -3 91 -2v-66q-220 6 -238 6q-37 0 -236 -6v66q10 0 33 -1t35 -1q98 0 98 98v919h-112q-68 0 -68 41zM877 243q0 -45 30 -89q89 -130 225 -130q154 0 243 138q64 99 64 302q0 199 -60 297 q-85 138 -225 138q-91 0 -179 -61q-98 -67 -98 -153v-442z" />
<glyph unicode="&#x2115;" horiz-adv-x="1540" d="M53 39q0 34 44 36q66 3 83 13q44 24 44 112v1009q-53 59 -113 59q-33 0 -33 38q0 37 33 37h407q14 0 26 -16l596 -802v596q0 92 -27 119.5t-119 27.5q-36 0 -36 38q0 37 36 37h353q33 0 33 -37q0 -30 -29 -37q-27 -2 -53 -4q-50 -9 -63 -51q-7 -22 -7 -87v-1130 q0 -34 -36 -34q-19 0 -30 14l-851 1125v-884q0 -89 28.5 -116t118.5 -27q36 0 36 -36q0 -39 -36 -39h-370q-35 0 -35 39zM280 1268l860 -1139v269l-646 870h-214z" />
<glyph unicode="&#x2116;" horiz-adv-x="1954" d="M16 92q0 43 30.5 69.5t74.5 26.5q40 0 90 -27q56 -30 77 -30q51 0 62 121q1 15 1 154v697q0 91 -5 114q-13 62 -65 84q-43 17 -125 18v37h355l504 -913v435q0 191 5 233q17 141 91 204q65 55 162 55q63 0 109 -30q53 -35 53 -95q0 -43 -31 -72t-74 -29q-44 0 -87 27 q-50 31 -71 31q-53 0 -66 -90q-3 -23 -3 -128v-1015h-45l-619 1107v-652q0 -167 -10 -228q-24 -141 -109 -189q-65 -38 -142 -38q-65 0 -109 28q-53 34 -53 95zM1286 0v112h598v-112h-598zM1286 647q0 126 78 211.5t203 85.5q139 0 228 -91t89 -230q0 -128 -76 -216 q-80 -92 -206 -92q-135 0 -225.5 98t-90.5 234zM1441 721q0 -109 41 -218q54 -142 145 -142q111 0 111 165q0 111 -39 223q-51 148 -139 148q-119 0 -119 -176z" />
<glyph unicode="&#x2117;" horiz-adv-x="1975" d="M60 547q0 384 272 655.5t656 271.5t655.5 -271.5t271.5 -655.5t-271.5 -655.5t-655.5 -271.5q-383 0 -655.5 272t-272.5 655zM144 547q0 -349 247.5 -597.5t596.5 -248.5q350 0 597.5 248t247.5 598q0 351 -247 598t-598 247q-350 0 -597 -247.5t-247 -597.5zM531 -3 q56 -1 71 -1q93 0 106 25q5 10 5 29v954q0 25 -5 38q-12 30 -177 23v86h640q162 0 291 -89q143 -101 143 -256q0 -149 -139 -248q-125 -89 -280 -89h-287v-410q0 -39 19 -51q12 -8 56 -11q25 -2 110 0v-86q-84 7 -135 7h-293q-42 0 -125 -7v86zM895 545h230q266 0 266 261 q0 138 -63.5 198.5t-202.5 60.5h-168q-42 0 -52 -8.5t-10 -47.5v-464z" />
<glyph unicode="&#x2118;" horiz-adv-x="1518" d="M90 204q0 97 54 204q29 58 114 181q-61 150 -61 244q0 185 158 366q122 141 318 258l26 -43q-341 -202 -341 -494q0 -83 32 -157q346 367 499 454.5t277 87.5q119 0 193 -87q69 -82 69 -203q0 -156 -86 -301q-80 -135 -215 -232q-141 -101 -256 -101q-92 0 -155 51 q-66 55 -66 146q0 69 33 120q38 59 104 59q74 0 74 -73q0 -30 -27 -58q-17 -17 -78 -35q-43 -12 -43 -56q0 -46 52 -80q46 -30 94 -30q56 0 128 46q116 74 195 262q73 171 73 323q0 72 -37 126q-42 60 -111 60q-63 0 -126 -30q-124 -59 -303 -222q-155 -141 -264 -276 q145 -297 145 -435q0 -84 -32 -160q-36 -87 -100 -126q-59 -36 -114 -36q-48 0 -106 30q-117 61 -117 217zM136 202q0 -77 44 -135q48 -63 123 -63q60 0 95 44q33 41 33 103q0 132 -150 387q-84 -130 -99 -158q-46 -90 -46 -178z" />
<glyph unicode="&#x2119;" horiz-adv-x="1207" d="M53 39q0 36 40 36q84 0 102.5 16.5t18.5 94.5v975q0 71 -18 89t-94 18q-49 0 -49 38q0 37 34 37h596q214 0 347 -78q165 -96 165 -295q0 -187 -171 -288q-142 -83 -343 -83q-14 0 -43 1t-43 1t-57 -1v-418q0 -78 33 -96q20 -11 107 -11q34 0 34 -36q0 -39 -34 -39h-591 q-34 0 -34 39zM273 1268q16 -38 16 -107v-975q0 -72 -15 -111h208q-19 39 -19 107v1011q0 42 23 75h-213zM538 675h105q130 0 178 91q33 64 33 204q0 151 -30 210q-44 88 -180 88q-39 0 -69 -18q-37 -21 -37 -57v-518zM866 697q254 69 254 273q0 219 -250 278 q59 -79 59 -278q0 -186 -63 -273z" />
<glyph unicode="&#x211a;" horiz-adv-x="1493" d="M53 671q0 315 192 511.5t507 196.5t506.5 -196.5t191.5 -511.5q0 -260 -133 -443q-138 -190 -387 -245q46 -94 136 -150t195 -56q22 0 63.5 8.5t63.5 8.5q37 0 37 -38q0 -46 -162 -80q-126 -27 -206 -27q-168 0 -311.5 94t-210.5 248q-233 64 -361 253q-121 179 -121 427 zM128 671q0 -417 340 -574q-141 182 -141 574q0 397 144 578q-162 -72 -252.5 -223t-90.5 -355zM402 671q0 -634 350 -634q348 0 348 633q0 635 -348 635q-350 0 -350 -634zM626 -18q151 -258 431 -258q15 0 50 4q-148 54 -254 246q-47 -12 -101 -12q-68 0 -126 20z M1030 1250q145 -178 145 -580q0 -395 -142 -575q165 72 255 225q87 150 87 351q0 205 -91 356.5t-254 222.5z" />
<glyph unicode="&#x211b;" horiz-adv-x="1828" d="M72 251q0 78 52.5 133.5t129.5 55.5q50 0 88.5 -34t38.5 -83q0 -64 -57 -90q-53 -15 -107 -31q-57 -18 -57 -64q0 -61 95 -98q74 -29 147 -29q159 0 275 128q79 87 218 381q51 108 160 318q209 365 528 522q-111 39 -261 39q-248 0 -497 -96q-268 -104 -416 -279 q-103 -122 -103 -252q0 -68 39 -112q41 -47 109 -47q81 0 176 70q252 185 273 517h30q14 -95 14 -172q0 -196 -116 -326q-120 -135 -314 -135q-102 0 -170 51q-74 56 -74 155q0 135 110 268q147 178 424 287q256 101 507 101q156 0 326 -44q89 31 154 48l7 -28 q-62 -17 -116 -35q258 -99 258 -285q0 -103 -94 -200q-117 -122 -372 -183q104 -98 104 -235q0 -66 -35.5 -199.5t-35.5 -196.5q0 -35 23 -35q83 0 302 298l27 -17q-240 -341 -412 -341q-79 0 -130.5 51t-51.5 130q0 90 78 241t78 223q0 34 -20 69q-43 -6 -73 -6 q-61 0 -61 31q0 42 63 42q45 0 113 -32q120 15 211 159q82 132 82 261q0 126 -121 197q-111 -49 -176 -136q-100 -133 -186 -422q-26 -95 -89 -278q-60 -141 -158 -257q-226 -268 -581 -268q-144 0 -241 61q-115 72 -115 209z" />
<glyph unicode="&#x211c;" horiz-adv-x="1458" d="M33 1038q0 140 100.5 246.5t239.5 106.5q112 0 204 -53q104 -60 125 -160q179 87 357 217l160 -124q73 -74 73 -186q0 -170 -256 -286q102 -70 128 -244q8 -140 17 -280q11 -134 79 -134q28 0 83 56l23 -31l-219 -174q-159 89 -159 384v68q1 45 1 66q0 69 -29 131 q-36 78 -98 78q-14 0 -127 -47q0 -167 -20 -256q-30 -133 -119 -223q-43 -44 -132 -103q-100 -66 -136 -98l-125 141l-68 -51l-22 29l217 168l123 -146q57 31 75 79q13 34 13 112v585q0 432 -217 432q-75 0 -134 -50q-61 -53 -61 -126q0 -74 64 -134l120 -102 q64 -68 64 -161q0 -85 -45 -156q-49 -76 -127 -98l-6 33q96 39 96 110q0 54 -68 109q-120 96 -126 103q-68 72 -68 169zM713 1139q22 -102 22 -426q187 69 245 104q142 85 142 203q0 82 -61 144.5t-143 62.5q-57 0 -205 -88z" />
<glyph unicode="&#x211d;" horiz-adv-x="1548" d="M53 39q0 36 58 36q77 0 96.5 19t19.5 92v975q0 71 -26 91q-21 16 -90 16q-58 0 -58 38q0 37 34 37h645q201 0 346 -81q177 -99 177 -285q0 -281 -342 -343q356 -559 453 -559q33 0 33 -36q0 -39 -33 -39h-339q-16 0 -25 14l-387 598h-65v-430q0 -71 26 -91q20 -16 89 -16 q59 0 59 -36q0 -39 -34 -39h-603q-34 0 -34 39zM283 1268q19 -40 19 -107v-975q0 -71 -18 -111h210q-19 40 -19 107v1011q0 42 22 75h-214zM550 686h46q186 0 248 51q70 58 70 240q0 151 -51 216q-58 75 -204 75q-109 0 -109 -75v-507zM702 615l350 -540h179 q-147 136 -411 564q-48 -17 -118 -24zM917 1246q72 -88 72 -269t-64 -264q255 58 255 264q0 201 -263 269z" />
<glyph unicode="&#x211e;" horiz-adv-x="1596" d="M68 0v61q73 -1 55 -1q122 0 140 38q7 15 7 48v1051q0 32 -7 48q-18 41 -195 36v62h695q174 0 311 -94q154 -106 154 -272q0 -112 -78 -201q-71 -79 -185 -122q10 -27 144 -195l105 131q26 32 26 58q0 45 -52 47v68q95 -7 173 -7q60 0 151 7v-68q-127 -2 -210 -87 q-25 -26 -159 -196l233 -299q30 -39 77 -48q24 -5 91 -5v-66q-81 5 -175 5q-44 0 -195 -5v66q63 2 63 38q0 10 -165 225q-151 -173 -151 -214q0 -45 51 -49v-66q-121 5 -170.5 5t-144 3.5t-141.5 3.5h-326q-50 0 -122 -6zM439 670h272q313 0 313 307q0 161 -75.5 232.5 t-237.5 71.5h-186q-53 0 -67 -12q-19 -14 -19 -67v-532zM444 152q0 -32 7 -48q20 -44 198 -44q133 0 226 103q5 6 161 206l-196 254q-31 -4 -61 -4h-335v-467z" />
<glyph unicode="&#x211f;" horiz-adv-x="1508" d="M68 0v61q6 0 26 -1h27q125 0 142 35q7 15 7 46v1055q0 27 -6 45q-15 44 -196 40v62h618q106 0 215 -34l28 60l-320 148q-48 22 -48 47q0 42 37 42q16 0 46 -14l333 -155q47 -22 47 -44q0 -14 -15 -46l-31 -67q221 -101 221 -288q0 -122 -115 -213q-94 -75 -229 -108 q165 -57 224 -182q25 -52 40 -161l24 -170q31 -158 118 -158q101 0 131 175q5 31 24 31q24 0 24 -33q0 -86 -49 -148q-53 -68 -137 -68q-160 0 -248 81q-82 75 -82 237q0 13 1 40v40q0 158 -76 230q-64 61 -165 67l-245 -526q2 -18 7 -31q15 -37 197 -34v-61q-74 6 -143 6 h-117l-98 -211q-23 -49 -48 -49q-8 0 -18 4q-23 11 -23 33q0 15 15 46l82 177h-82q-69 0 -143 -6zM439 319l155 333h-155v-333zM439 696h176l254 545q-85 42 -329 42q-51 0 -69 -7q-32 -14 -32 -57v-523zM706 698q291 19 291 294q0 130 -61 199z" />
<glyph unicode="&#x2120;" horiz-adv-x="2174" d="M52 582v288q0 32 31 32q36 0 36 -60q0 -90 85 -158t232 -68q78 0 134 50t56 126q0 63 -45 113q-42 47 -150 71l-172 36q-90 29 -146 93q-61 70 -61 160q0 118 96 196q90 72 211 72q133 0 240 -87q62 87 78 87q31 0 31 -34v-287q0 -31 -34 -31q-22 0 -28.5 25.5 t-20.5 79.5q-58 185 -265 185q-74 0 -128 -42q-58 -46 -58 -118q0 -104 126 -148l212 -48q105 -27 168 -98q68 -76 68 -180q0 -124 -92.5 -205.5t-218.5 -81.5q-175 0 -276 86q-64 -86 -81 -86q-28 0 -28 32zM822 579v66q156 -1 156 81v670q0 12 -4 21q-8 19 -152 18v67h275 q43 0 59 -36l317 -710l319 714q14 32 49 32h281v-67q-12 0 -38 1t-40 1q-78 0 -78 -45v-707q0 -13 5 -23q9 -18 151 -17v-67q-72 5 -99 5h-266q-23 0 -95 -5v67q116 0 133 6q23 8 23 35v706l-349 -781q-14 -32 -39 -32t-41 36l-344 767v-656q0 -82 156 -81v-66 q-160 4 -189 4q-28 0 -190 -4z" />
<glyph unicode="&#x2121;" horiz-adv-x="3030" d="M51 602l30 321h950l30 -321h-63q-17 182 -72 222q-44 33 -238 33q-53 0 -53 -31v-716q0 -14 6 -25q11 -22 215 -19v-67q-80 5 -123 5h-354q-44 0 -124 -5v67q10 0 38 -1h38q129 0 140 20q4 8 4 25v717q0 30 -60 30q-188 0 -233 -36q-52 -41 -69 -219h-62zM1122 0v66 q53 -1 54 -1q88 0 98 19q4 7 4 26v704q0 16 -5 26q-10 21 -151 16v67h876l47 -321h-64q-19 153 -75.5 203.5t-211.5 50.5h-202q-36 0 -43 -3q-12 -7 -12 -37v-304h124q97 0 124 28.5t27 124.5h65v-374h-65q0 96 -27.5 125t-123.5 29h-124v-339q0 -30 12 -37q7 -3 43 -3h210 q172 0 237 67q53 56 85 232h64l-70 -365h-896zM2122 0v66q8 0 30 -1h29q84 0 93 18q4 8 4 20v721q0 11 -4 19q-8 16 -152 15v68q68 -5 100 -5h314q25 0 95 5v-68q-14 0 -44 1t-46 1q-87 0 -99 -19q-5 -8 -5 -25v-710q0 -30 12 -36q7 -4 41 -4h133q155 0 220 75q55 64 74 224 h63l-45 -365h-813z" />
<glyph unicode="&#x2122;" horiz-adv-x="2444" d="M51 1181l30 321h950l30 -321h-63q-17 182 -72 222q-44 33 -238 33q-53 0 -53 -31v-716q0 -14 6 -25q11 -22 215 -19v-67q-80 5 -123 5h-354q-44 0 -124 -5v67q10 0 38 -1h38q129 0 140 20q4 8 4 25v717q0 30 -60 30q-188 0 -233 -36q-52 -41 -69 -219h-62zM1092 579v66 q156 -1 156 81v670q0 12 -4 21q-8 19 -152 18v67h275q43 0 59 -36l317 -710l319 714q14 32 49 32h281v-67q-12 0 -38 1t-40 1q-78 0 -78 -45v-707q0 -13 5 -23q9 -18 151 -17v-67q-72 5 -99 5h-266q-23 0 -95 -5v67q116 0 133 6q23 8 23 35v706l-349 -781q-14 -32 -39 -32 t-41 36l-344 767v-656q0 -82 156 -81v-66q-160 4 -189 4q-28 0 -190 -4z" />
<glyph unicode="&#x2123;" horiz-adv-x="1536" d="M68 1284v62q213 -6 344 -6q115 0 188 6v-62h-18q-144 0 -144 -56q0 -31 172 -477l289 618l-320 148q-48 22 -48 47q0 42 37 42q16 0 46 -14l333 -155q47 -22 47 -44q0 -14 -15 -46l-328 -702l175 -448l361 950q9 24 9 40q0 94 -143 97v62q153 -6 223 -6q99 0 192 6v-62 q-164 -1 -214 -132l-440 -1158q-14 -37 -48 -37q-31 0 -47 43l-165 436l-299 -641q-23 -49 -48 -49q-41 0 -41 37q0 14 15 46l333 714l-252 666q-22 57 -81 71q-28 7 -113 4z" />
<glyph unicode="&#x2124;" horiz-adv-x="1351" d="M53 39q0 11 749 1229h-147q-331 0 -431 -191q-11 -36 -23 -73q-17 -50 -43 -50q-41 0 -37 40l35 314q4 35 33 35h961q35 0 35 -37q0 -12 -748 -1231h277q133 0 247.5 67t172.5 184q14 45 27 90q21 63 48 63q41 0 36 -36l-56 -407q-5 -36 -32 -36h-1069q-35 0 -35 39z M159 75h190l732 1193h-191q-247 -396 -731 -1193zM219 1194q43 43 99 74h-91zM996 75h123l16 117q-59 -70 -139 -117z" />
<glyph unicode="&#x2125;" horiz-adv-x="904" d="M53 166q0 23 27 75q38 72 122 143l436 370h-504q-43 0 -43 29q0 17 20 36l517 476h-193q-147 0 -209 -50q-66 -52 -75 -189h-54l19 287h665q43 0 43 -28q0 -16 -20 -34l-520 -479h507q43 0 43 -28q0 -17 -20 -34l-348 -299q177 -17 289.5 -136.5t112.5 -295.5 q0 -196 -132 -319.5t-330 -123.5q-121 0 -215 54q-113 64 -113 176q0 100 97 100q42 0 70.5 -28t28.5 -70q0 -94 -100 -99q79 -78 229 -78q59 0 120 34q168 94 168 344q0 112 -42 204q-47 105 -136 153q-63 34 -123 34q-113 0 -181 -64q-40 -37 -78 -118q-30 -64 -49 -64 q-29 0 -29 22z" />
<glyph unicode="&#x2126;" horiz-adv-x="1462" d="M67 320h49q17 -111 36.5 -144t38.5 -41q15 -7 55 -7h214q-27 111 -120 256q-144 223 -153 240q-76 141 -76 272q0 220 204 364q185 130 416 130t416 -130q204 -144 204 -364q0 -131 -76 -272q-9 -18 -153 -240q-93 -145 -120 -256h214q40 0 55 7q19 8 38.5 41t36.5 144 h49l-64 -320h-347q-25 0 -31.5 7t-6.5 33q0 150 101 423t101 423q0 184 -114 318q-120 142 -303 142t-303 -142q-114 -134 -114 -318q0 -150 101.5 -423t101.5 -423q0 -40 -39 -40h-347z" />
<glyph unicode="&#x2127;" horiz-adv-x="1462" d="M67 1023l64 320h347q39 0 39 -40q0 -150 -101.5 -423t-101.5 -423q0 -184 114 -318q120 -142 303 -142t303 142q114 134 114 318q0 150 -101 423t-101 423q0 26 6.5 33t31.5 7h347l64 -320h-49q-17 111 -36.5 144t-38.5 41q-15 7 -55 7h-214q27 -111 120 -256 q144 -223 153 -240q76 -141 76 -272q0 -220 -204 -364q-185 -130 -416 -130t-415 130q-205 144 -205 364q0 131 76 272q9 17 153 240q93 145 120 256h-214q-40 0 -55 -7q-19 -8 -38.5 -41t-36.5 -144h-49z" />
<glyph unicode="&#x2128;" horiz-adv-x="1358" d="M-14 -74q9 76 66.5 123t133.5 47q122 0 195 -100l112 -186q71 -101 189 -101q291 0 291 402q0 483 -252 483q-146 0 -197 -141l-30 16q39 103 149 143q-95 39 -143 125l26 21q70 -117 174 -117q123 0 187 101q55 85 55 212q0 169 -72 272q-82 117 -243 117 q-138 0 -250 -83q-123 -92 -123 -226q0 -54 20 -98l-26 -14q-27 60 -27 116q0 155 139 254q125 88 285 88q188 0 329 -96q161 -109 161 -289q0 -135 -108 -239q-91 -88 -234 -135q179 -38 283 -155q108 -122 108 -302q0 -236 -187 -373q-167 -123 -411 -123q-174 0 -270 94 q-44 43 -110 173q-47 94 -102 94q-76 0 -86 -103h-32z" />
<glyph unicode="&#x2129;" horiz-adv-x="748" d="M52 535v122q0 114 48 194q58 96 164 96q133 0 204 -80q69 -76 69 -210v-473q0 -86 41 -106q22 -12 117 -11v-67l-299 -23v685q0 231 -148 231q-102 0 -131 -139q-14 -64 -12 -219h-53z" />
<glyph unicode="&#x212a;" horiz-adv-x="1519" d="M68 0v61q8 0 27 -1h28q125 0 141 40q6 15 6 44v1066q0 27 -7 41q-17 35 -195 33v62q70 -6 119 -6h342q50 0 120 6v-62q-9 0 -28 1t-29 1q-126 0 -142 -40q-6 -15 -6 -44v-636l618 588q36 34 36 67q0 61 -91 63v62q69 -6 180 -6q186 0 239 6v-62q-160 -2 -281 -118 l-356 -340l456 -670q42 -62 89 -81q36 -14 117 -14v-61q-127 6 -324 6q-112 0 -183 -6v61q117 -1 117 59q0 22 -31 68l-357 528l-229 -218v-359q0 -28 9 -45q18 -34 196 -33v-61q-71 6 -120 6h-347q-43 0 -114 -6z" />
<glyph unicode="&#x212b;" horiz-adv-x="1484" d="M68 0v61q174 2 219 133l358 1029q-104 58 -104 178q0 84 58.5 144.5t142.5 60.5t142.5 -59.5t58.5 -143.5q0 -121 -104 -180l374 -1083q21 -61 84 -75q25 -6 120 -4v-61q-127 6 -355 6q-113 0 -187 -6v61q162 -1 162 59q0 29 -47 159q-31 84 -62 169h-487l-56 -146 q-39 -107 -39 -140q0 -51 52 -78q42 -23 97 -23v-61q-189 6 -228 6q-62 0 -199 -6zM464 510h442l-222 641zM611 1401q0 -54 38.5 -93.5t92.5 -39.5q53 0 92 40.5t39 94.5t-38.5 93.5t-92.5 39.5q-53 0 -92 -40.5t-39 -94.5z" />
<glyph unicode="&#x212c;" horiz-adv-x="1734" d="M35 255q0 81 49 135.5t128 54.5q49 0 87 -30q41 -33 41 -81q0 -62 -57 -93l-106 -38q-57 -20 -57 -57q0 -62 96 -101q75 -30 149 -30q157 0 273 132q74 82 163 270l129 271q150 314 323 478q116 110 279 196q-117 42 -276 42q-245 0 -474 -82q-257 -93 -397 -260 q-104 -124 -104 -243q0 -65 40.5 -110.5t105.5 -45.5q74 0 174 65q126 82 204.5 216.5t89.5 285.5l27 8q14 -93 14 -151q0 -184 -94 -306q-127 -165 -341 -165q-104 0 -173 48q-79 55 -79 155q0 128 111 260q150 178 410 272q231 84 491 84q167 0 327 -45q55 25 147 49 l8 -29q-67 -19 -114 -37q199 -88 199 -254q0 -127 -133 -234q-73 -58 -245 -143q251 -100 251 -297q0 -169 -168 -316q-163 -143 -334 -143q-66 0 -108 36q-46 38 -46 102q0 179 214 295l16 -27q-80 -43 -135 -111q-63 -78 -63 -159q0 -40 25 -69q26 -32 65 -32 q81 0 189 165q129 198 129 380q0 109 -79 159q-82 -31 -137 -31q-40 0 -40 31q0 46 80 46q42 0 95 -15q99 36 169 180q63 129 63 246t-72 164q-161 -88 -240 -238q-42 -80 -111 -323l-42 -148q-83 -294 -276 -466q-209 -187 -501 -187q-146 0 -243 60q-116 73 -116 211z" />
<glyph unicode="&#x212d;" horiz-adv-x="1257" d="M102 711q0 216 74 405q98 250 279 250q139 0 188 -160l154 193q148 -96 235 -96q83 0 137 71l29 -16q-125 -182 -278 -182q-78 0 -201 65q-70 -70 -70 -129q0 -84 106.5 -256t106.5 -260q0 -167 -182 -326l-21 29q66 56 66 139q0 82 -96.5 245t-96.5 257q0 99 82 227 q-8 63 -45 108q-41 50 -100 50q-207 0 -207 -465q0 -287 95 -473q123 -242 382 -242q348 0 453 224h33q-133 -377 -512 -377q-277 0 -451 226q-160 208 -160 493z" />
<glyph unicode="&#x212e;" horiz-adv-x="1188" d="M68 586q0 229 165.5 396t394.5 167q215 0 353.5 -143t138.5 -358q0 -34 -8.5 -42t-42.5 -8h-755v-294q0 -15 33 -77q101 -194 326 -194q267 0 382 267q14 33 30 33q28 0 28 -27q0 -39 -41 -106q-64 -105 -176 -164.5t-237 -59.5q-262 0 -428 175q-163 171 -163 435z M314 644h607v211q-90 243 -293 243q-225 0 -314 -245v-209z" />
<glyph unicode="&#x212f;" horiz-adv-x="744" d="M0 320q18 30 52 35q69 144 164 221q166 134 350 134q197 0 197 -144q0 -69 -68 -136q-134 -132 -406 -132q-63 -139 -63 -225q0 -50 63 -50q139 0 265 98q89 68 197 211l27 -17q-126 -162 -206 -226q-130 -103 -282 -103q-113 0 -186 62q-78 65 -78 177q0 44 13 91 l-11 -13zM302 327q117 3 218 83q138 109 138 214q0 56 -61 56q-128 0 -295 -353z" />
<glyph unicode="&#x2130;" horiz-adv-x="1204" d="M177 394q0 196 190 327q151 103 370 139q-120 109 -120 240q0 140 124 235q140 107 354 107q146 0 233 -60q101 -70 101 -210q0 -100 -61 -180q-66 -86 -164 -86q-63 0 -102 45t-39 109q0 121 157 215l20 -22q-122 -103 -122 -220q0 -40 25.5 -69.5t65.5 -29.5 q82 0 138 81q50 74 50 159q0 97 -61 161.5t-157 64.5q-140 0 -253 -127q-110 -123 -110 -265q0 -71 33 -137q31 1 43 1q63 0 124 -16q87 -23 87 -66q0 -49 -79 -49q-100 0 -232 78q-168 -54 -277 -216q-105 -157 -105 -338q0 -252 261 -252q156 0 276 80q124 84 170 230 q16 51 16 87q0 62 -34 103q-37 45 -97 45q-78 0 -150 -74q-116 -119 -120 -315h-31q-25 61 -25 123q0 126 86.5 215t212.5 89q81 0 136.5 -51.5t55.5 -131.5q0 -148 -119 -275q-147 -157 -381 -157q-197 0 -334 107q-156 122 -156 306zM872 837q68 -64 138 -64q38 0 38 23 q0 21 -54 35q-41 10 -71 10q-22 0 -51 -4z" />
<glyph unicode="&#x2131;" horiz-adv-x="1414" d="M116 248q0 77 51.5 133.5t128.5 56.5q48 0 87 -30q42 -33 42 -80q0 -60 -56 -90q-52 -20 -104 -39q-56 -23 -56 -65q0 -38 58 -76q69 -45 170 -45q157 0 271 130q69 79 159 269l69 146q-194 -29 -346 -178l-22 23q93 89 174 130q85 43 208 59q215 441 490 613l22 -22 q-59 -42 -86 -96q-33 -66 -86 -270q-18 -70 -56 -210q57 5 116 25q40 104 56 133q46 81 104 81q53 0 53 -53q0 -47 -46 -94q-16 -15 -86 -68q-2 -165 -61 -261q-94 -15 -165 -34q75 118 130 260q-56 -18 -110 -23q-36 -145 -136 -280q-234 -314 -615 -314q-181 0 -275 88 q-83 78 -83 181zM345 820q0 206 210 387q270 233 639 233q103 0 189 -16q274 -51 343 -51q85 0 154 60l24 -17q-126 -191 -281 -191q-100 0 -284.5 77.5t-292.5 77.5q-168 0 -338 -100q-135 -79 -224 -190q-106 -133 -106 -268q0 -72 43 -122q45 -53 116 -53q115 0 249 202 q104 157 104 280q0 58 -28 127l31 7q70 -156 70 -277q0 -156 -117.5 -264.5t-274.5 -108.5q-99 0 -161 53q-65 57 -65 154zM1435 673q93 67 93 118q0 23 -24 23q-48 0 -69 -141z" />
<glyph unicode="&#x2132;" horiz-adv-x="1271" d="M68 442h49q24 -217 89 -291q77 -89 286 -89h252q45 0 61 10q22 13 22 69v501h-170q-132 0 -174 -51q-36 -45 -36 -180h-48v522h48q0 -136 36 -180q42 -51 174 -51h170v497q0 27 -7 44q-18 43 -246 39v61q74 -6 135 -6h373q49 0 121 6v-61h-75q-64 0 -88 -10 q-39 -18 -39 -73v-1056q0 -25 6 -42q15 -43 196 -39v-62h-1081z" />
<glyph unicode="&#x2133;" horiz-adv-x="2093" d="M-78 225q0 81 50 141q53 65 132 65q48 0 85.5 -32.5t37.5 -79.5q0 -64 -70 -100q-49 -12 -99 -24q-60 -15 -60 -64q0 -62 84 -95q63 -24 137 -24q167 0 310 124q89 78 205 220q140 172 214 267q119 155 368 455q207 229 338 324q35 25 49 25q29 0 29 -23q0 -11 -13 -34 q-158 -275 -350 -774q-74 -193 -118 -315q-27 -75 -74 -228q62 64 271 382q408 621 766 906q109 87 148 87q27 0 27 -23q0 -20 -35 -69q-59 -83 -131 -208q-84 -146 -135 -252q-347 -725 -347 -829q0 -31 29 -31q54 0 177 132q90 96 153 186l28 -17q-253 -337 -384 -337 q-76 0 -120 78q-38 66 -38 147q0 246 275 626q133 184 460 546q-373 -239 -846 -960q-89 -136 -164 -243q-29 -43 -91 -123q-61 -69 -99 -69q-33 0 -67 45q-39 52 -39 151q0 243 229 617q112 182 397 556q-289 -247 -663 -750q-69 -93 -139 -187q-81 -106 -148 -178 q-237 -254 -476 -254q-122 0 -203 59q-90 67 -90 184z" />
<glyph unicode="&#x2134;" horiz-adv-x="794" d="M0 320q280 390 550 390q197 0 197 -187q0 -183 -206 -391l2 -2q7 -5 19 -5q77 0 239 207l28 -17q-85 -108 -123 -144q-85 -80 -164 -80q-20 0 -38 5q-127 -110 -235 -110q-101 0 -165.5 68.5t-64.5 169.5q0 56 33 139q-25 -33 -45 -60zM229 69q0 -47 55 -47q90 0 187 91 q-11 17 -11 35q0 59 63 59q7 0 15 -2q140 221 140 360q0 109 -81 109q-106 0 -242 -250q-126 -233 -126 -355z" />
<glyph unicode="&#x2135;" horiz-adv-x="1417" d="M90 1154q0 47 26 98q66 129 112 129q20 0 20 -18q0 -12 -7 -36t-7 -36q0 -86 94 -182q73 -75 135 -126l360 -297l264 330q-126 102 -126 190q0 139 181 175q-38 -54 -38 -93q0 -64 111.5 -157.5t111.5 -176.5q0 -73 -89 -123q-28 94 -102 149l-268 -333 q181 -151 213 -179q145 -130 178 -196q21 -42 21 -81q0 -88 -78 -175q-48 -53 -71 -53q-15 0 -15 17q0 8 13 43t13 57q0 73 -77 154q-26 28 -135 118l-586 485q-124 -148 -124 -259q0 -96 138 -234t138 -215q0 -166 -250 -166q-83 0 -83 31q0 3 46.5 31t46.5 80 q0 39 -47 136q-55 115 -63 143q-15 53 -15 117q0 155 175 368l-142 136q-74 71 -74 149z" />
<glyph unicode="&#x2136;" horiz-adv-x="1366" d="M90 39q0 17 10 29q18 21 66 63q56 48 71 48h871v804q0 60 -86 60h-450q-191 0 -272 38q-122 57 -122 226q0 74 35 74q17 0 39 -40q26 -51 31 -56q61 -62 289 -62h456q101 0 135 -60q23 -42 23 -152v-832q6 0 19.5 1t20.5 1q50 0 50 -41q0 -17 -9 -26l-109 -104 q-10 -10 -27 -10h-1006q-35 0 -35 39z" />
<glyph unicode="&#x2137;" horiz-adv-x="950" d="M90 39q0 17 10 29q20 23 67 63q55 48 70 48h441v864q-19 0 -62 -1h-62q-178 0 -261 43q-115 60 -115 222q0 74 35 74q17 0 39 -40q27 -52 31 -56q58 -62 289 -62h185q103 0 103 -91q0 -90 -103 -89q0 -22 37 -384q33 -326 33 -521q0 -221 -76 -221q-48 0 -66 167 q-80 -84 -98 -84h-462q-35 0 -35 39z" />
<glyph unicode="&#x2138;" horiz-adv-x="1297" d="M90 1307q0 74 35 74q17 0 39 -40q29 -53 32 -56q58 -62 287 -62h620q104 0 104 -91q0 -90 -104 -89q0 -27 37 -384q34 -332 34 -521q0 -221 -76 -221q-39 0 -60 119q-14 82 -14 159v848h-541q-191 0 -271 38q-122 57 -122 226z" />
<glyph unicode="&#x2139;" horiz-adv-x="922" d="M101 712q0 21 44 73q200 236 410 236q150 0 150 -141q0 -52 -20 -106l-177 -475q-25 -67 -25 -105q0 -33 23 -33q39 0 123 93.5t94 94.5q28 -11 28 -37q0 -19 -20 -44q-228 -290 -462 -290q-133 0 -133 125q0 95 51 225l195 497q4 10 4 20q0 31 -29 31q-42 0 -129 -96 t-98 -96q-7 0 -11 4q-18 5 -18 24zM503 1268q0 62 55 110t118 48q155 0 155 -159q0 -68 -54 -116.5t-123 -48.5q-151 0 -151 166z" />
<glyph unicode="&#x213a;" horiz-adv-x="1457" d="M68 1243q0 135 52 236q65 127 187 127q126 0 185 -130q34 -73 56 -239q95 30 186 30q281 0 472 -218q184 -210 184 -494q0 -285 -182 -498q-191 -223 -472 -223q-282 0 -473 223q-182 212 -182 498q0 209 105 387q109 185 294 269q-62 192 -188 192q-138 0 -180 -166 q-9 -35 -21 -35q-23 0 -23 41zM278 555q0 -455 262 -613q96 -58 196 -58q97 0 192 56q267 157 267 615q0 213 -69 375q-86 199 -259 263q28 -45 28 -94q0 -68 -47.5 -117t-115.5 -49q-144 0 -221 208q-233 -172 -233 -586zM560 1172q36 -196 172 -196q50 0 84.5 36.5 t34.5 86.5q0 51 -33 85t-84 34q-92 0 -174 -46z" />
<glyph unicode="&#x213b;" horiz-adv-x="3003" d="M52 -1v67q117 0 133 6q23 9 23 37v706q0 13 -4 23q-9 22 -152 18v67h855l45 -321h-63q-19 152 -70 201q-54 53 -207 53h-194q-33 0 -40 -4q-11 -7 -11 -36v-322h118q97 0 125 33q24 28 24 121h62v-374h-62q0 94 -24 121q-28 33 -125 33h-118v-319q0 -15 4 -24 q10 -22 190 -19v-67q-71 5 -109 5h-301q-30 0 -99 -5zM772 0v66q138 2 170 81l314 787q14 34 47 34t47 -34l327 -823q15 -38 69 -45q10 -1 89 0v-67q-122 5 -286 5q-85 0 -156 -5v67h25q99 0 99 27q0 18 -79 206h-358q-69 -159 -69 -178q0 -55 115 -55v-66q-145 4 -188 4 q-61 0 -166 -4zM1108 366h303l-152 382zM1862 0v66q157 0 222 83l243 311l-273 358q-25 32 -80 39q-18 3 -92 1v68q107 -5 241 -5q133 0 202 5v-67q-98 -3 -98 -27q0 -9 193 -253q174 224 174 232q0 46 -93 48v67q78 -5 183 -5q32 0 203 4v-67q-160 -1 -222 -80l-202 -257 l314 -413q26 -34 80 -41q18 -3 93 -1v-67q-122 5 -289 5q-85 0 -154 -5v67q99 3 99 27q0 3 -234 309q-218 -279 -218 -288q0 -46 95 -48v-67q-71 5 -160 5q-63 0 -227 -4z" />
<glyph unicode="&#x213c;" horiz-adv-x="1421" d="M128 624q0 7 6 17q162 282 374 282h930q35 0 60 -25.5t25 -60.5q0 -48 -34.5 -83.5t-82.5 -35.5h-254q-6 -81 -6 -127q0 -105 34 -216q22 -73 89 -196q23 -42 23 -61q0 -57 -52.5 -100.5t-111.5 -43.5q-91 0 -140 135q-35 100 -35 214q0 156 50 395h-246l-103 -492 q-29 -141 -44 -169q-40 -81 -142 -81q-43 0 -83 25q-46 29 -46 69q0 33 66 177q45 95 90 189q69 152 111 282h-153q-172 0 -230 -75q-36 -47 -61 -47q-34 0 -34 28zM347 785q45 8 106 8h953q42 0 42 44q0 11 -10 11h-930q-82 0 -161 -63zM413 74q17 -23 55 -23q63 0 88 68 q12 61 25 122l94 453q-64 -180 -202 -478q-23 -47 -60 -142zM1028 323q0 -69 22 -156q30 -118 78 -118q33 0 60 25t27 46q-50 112 -100 225q-44 117 -44 246q0 44 4 105q-47 -230 -47 -373z" />
<glyph unicode="&#x213d;" horiz-adv-x="1424" d="M217 569q0 5 3 12q153 378 481 378q331 0 421 -554q278 530 352 530q35 0 35 -38q0 -9 -13 -26q-208 -269 -313 -505q-65 -146 -77 -313q-2 -77 -10 -230q-18 -265 -181 -265q-44 0 -73 36q-27 33 -27 78q0 108 111 333.5t111 372.5q0 178 -148 268q-122 74 -312 74 q-161 0 -234 -86q-19 -30 -39 -60q-28 -42 -50 -42q-37 0 -37 37zM424 770q75 25 153 25q241 0 389 -110q-95 199 -265 199q-163 0 -277 -114zM890 -328q0 -39 25 -39q115 0 115 341v32q0 37 1 52l1 9q-48 -102 -95 -205q-47 -111 -47 -190z" />
<glyph unicode="&#x213e;" horiz-adv-x="1268" d="M53 39q0 36 57 36q78 0 96.5 19t18.5 92v975q0 74 -27 92q-19 14 -97 14q-48 0 -48 39q0 37 34 37h1048q32 0 32 -35v-317q0 -37 -35 -37q-39 0 -39 37q0 133 -129 211q-109 66 -252 66h-121q-55 0 -55 -111v-988q0 -70 51 -86q26 -8 125 -8q41 0 41 -36q0 -39 -35 -39 h-631q-34 0 -34 39zM282 1268q18 -39 18 -107v-975q0 -71 -17 -111h197q-19 36 -19 94v988q0 64 21 111h-200zM1000 1268q54 -32 92 -74v74h-92z" />
<glyph unicode="&#x213f;" horiz-adv-x="1666" d="M53 39q0 36 57 36q78 0 96.5 19t18.5 92v982q0 99 -87 99q-6 0 -17 -1h-17q-51 0 -51 40q0 37 33 37h1390q35 0 35 -37q0 -38 -57 -38q-77 0 -96.5 -19t-19.5 -92v-982q0 -69 30 -87q21 -12 95 -12q48 0 48 -37q0 -39 -35 -39h-599q-33 0 -33 39q0 36 55 36q78 0 97 19 t19 92v982q0 63 -24 83q-20 17 -82 17h-255q-53 0 -72 -9q-28 -14 -32 -59q-2 -16 -2 -43v-982q0 -69 30 -87q19 -12 94 -12q48 0 48 -37q0 -39 -35 -39h-599q-33 0 -33 39zM278 1268q22 -41 22 -100v-982q0 -71 -17 -111h208q-18 38 -18 100v982q0 71 18 111h-213z M1072 1268q18 -38 18 -100v-982q0 -72 -17 -111h208q-18 38 -18 100v982q0 72 17 111h-208z" />
<glyph unicode="&#x2140;" horiz-adv-x="1377" d="M53 39q0 11 383 631q-383 624 -383 636q0 37 34 37h1085q31 0 35 -35l34 -314q4 -40 -37 -40q-26 0 -44 50q-11 37 -22 73q-50 101 -187 151q-109 40 -244 40h-272l368 -598l-366 -595h277q133 0 247.5 67t172.5 184q14 45 27 90q20 63 48 63q41 0 36 -36l-56 -407 q-5 -36 -32 -36h-1069q-35 0 -35 39zM156 75h193l366 595l-368 598h-190l367 -598l-353 -573q-8 -13 -15 -22zM995 75h124l16 117q-59 -70 -140 -117zM1046 1268q57 -30 98 -71l-8 71h-90z" />
<glyph unicode="&#x2141;" horiz-adv-x="1438" d="M127 153q0 26 19.5 47t45.5 21q17 0 36 -11q210 -123 434 -123q250 0 389 168q130 156 130 411q0 267 -136 426q-144 168 -407 168q-170 0 -348 -69v-364h311q65 0 65 -65t-65 -65h-376q-26 0 -45.5 19.5t-19.5 45.5v473q0 74 206 120q154 35 272 35q317 0 499 -206 q174 -197 174 -518q0 -309 -168 -503q-177 -206 -481 -206q-236 0 -430 100q-52 27 -74 43q-31 23 -31 53z" />
<glyph unicode="&#x2142;" horiz-adv-x="1122" d="M54 1278q0 65 65 65h835q26 0 45.5 -19.5t19.5 -45.5v-1256q0 -65 -65 -65t-65 65v1191h-770q-65 0 -65 65z" />
<glyph unicode="&#x2143;" horiz-adv-x="1122" d="M54 65q0 65 65 65h770v1191q0 65 65 65t65 -65v-1256q0 -26 -19.5 -45.5t-45.5 -19.5h-835q-65 0 -65 65z" />
<glyph unicode="&#x2144;" horiz-adv-x="1131" d="M70 42q0 19 11 36l420 659v584q0 65 65 65t65 -65v-584l419 -659q11 -17 11 -36q0 -26 -20.5 -45.5t-47.5 -19.5q-33 0 -53 31l-374 589l-375 -589q-20 -31 -53 -31q-27 0 -47.5 19.5t-20.5 45.5z" />
<glyph unicode="&#x2145;" horiz-adv-x="1410" d="M-82 30q0 36 40 45q14 3 68 3q64 0 87 108l206 970q8 38 8 59q0 41 -41 49q-9 2 -74 2l-22 13q-3 7 -3 17q0 16 13.5 31.5t29.5 15.5h605q243 0 394 -121q164 -132 164 -369q0 -80 -17 -155q-70 -310 -288 -500q-227 -198 -539 -198h-606l-22 13q-3 7 -3 17zM145 75h220 q-11 22 -11 49q0 16 3 30l220 1033q10 47 42 81h-220q4 -16 4 -36q0 -34 -9 -76l-206 -970q-14 -68 -43 -111zM430 140q0 -63 93 -63q372 0 503 618q23 109 23 211q0 360 -260 360q-120 0 -137 -79l-220 -1033q-2 -9 -2 -14zM815 117q190 67 319 226q124 152 167 355 q15 71 15 138q0 299 -274 397q84 -110 84 -311q0 -207 -81 -434q-90 -250 -230 -371z" />
<glyph unicode="&#x2146;" horiz-adv-x="1349" d="M152 350q0 254 173.5 431.5t426.5 177.5q120 0 210 -73q27 117 54 235q42 184 42 220q0 41 -37 46q15 -2 -68 -2q-39 0 -39 38q0 35 36 37l380 16q45 2 45 -36l-1 -6l-261 -1217q-7 -33 -7 -78q0 -85 31 -85q130 0 188 192q5 24 20 71q13 29 36 29q38 0 38 -37l-1 -10 q-12 -123 -86 -217q-84 -106 -203 -106q-182 0 -281 113q-143 -113 -293 -113q-181 0 -289 95q-114 101 -114 279zM227 350q0 -216 187 -278q-36 62 -36 155q0 141 49 325q54 206 131 296q-152 -60 -241.5 -196.5t-89.5 -301.5zM453 227q0 -166 126 -166q134 0 239 132 q0 18 3 34l113 540q-48 106 -164 106q-127 0 -202 -143q-43 -83 -80 -255q-35 -162 -35 -248zM886 155q68 -77 156 -95q-11 25 -11 97q0 70 9 111l250 1131l-163 -7q7 -18 7 -44q0 -19 -6 -47q-77 -383 -242 -1146z" />
<glyph unicode="&#x2147;" horiz-adv-x="1175" d="M152 382q0 264 213 428q195 149 467 149q121 0 213 -49q113 -60 113 -170q0 -189 -264 -253q-139 -34 -414 -34q-25 -103 -25 -177q0 -94 49 -158q51 -67 131 -67q286 0 434 114q18 14 59 57q14 14 28 14q39 0 39 -38q0 -13 -9 -24q-159 -198 -551 -198q-205 0 -337 98 q-146 109 -146 308zM227 382q0 -220 209 -298q-56 83 -56 192q0 122 56 294q58 178 132 267q-154 -58 -244 -172q-97 -123 -97 -283zM500 528q583 0 583 212q0 63 -72.5 103.5t-178.5 40.5q-93 0 -132 -20q-26 -14 -76 -75q-69 -83 -124 -261z" />
<glyph unicode="&#x2148;" horiz-adv-x="894" d="M120 631q0 117 122 224q119 104 238 104q101 0 184 -48q99 -57 99 -151q0 -31 -13 -66l-174 -475q-25 -68 -25 -127q0 -41 21 -41q149 0 239 187q10 29 34 86q13 26 35 26q39 0 39 -36q0 -6 -2 -13q-105 -325 -359 -325q-101 0 -184 48q-99 56 -99 149q0 32 14 70 l173 474q23 63 23 120q0 45 -25 45q-77 0 -171 -87t-94 -164q0 -37 -37 -37q-38 0 -38 37zM350 173q0 -79 129 -112q-3 15 -3 31q0 72 30 153l174 475q8 23 8 40q0 82 -132 115q4 -18 4 -38q0 -70 -28 -146l-173 -474q-9 -26 -9 -44zM503 1326q0 77 58.5 133.5t135.5 56.5 q63 0 107 -43t44 -106q0 -76 -58.5 -132.5t-134.5 -56.5q-63 0 -107.5 42.5t-44.5 105.5zM578 1326q0 -73 77 -73q46 0 82 34t36 80q0 31 -22 52.5t-54 21.5q-46 0 -82.5 -34.5t-36.5 -80.5z" />
<glyph unicode="&#x2149;" horiz-adv-x="770" d="M-145 -279q0 64 46.5 110t110.5 46q47 0 80 -30.5t33 -77.5q0 -78 -65 -121q14 -3 24 -3q87 0 155 85q57 71 78 166l175 812q14 66 14 105q0 70 -46 70q-81 0 -166 -56q-78 -52 -125 -125q-14 -28 -43 -83q-13 -24 -34 -24q-39 0 -39 36q0 7 3 15q52 134 165 221 q118 92 257 92q114 0 204 -50q108 -61 108 -166q0 -18 -5 -41l-180 -830q-32 -148 -193 -236q-141 -77 -309 -77q-87 0 -159 37q-89 46 -89 125zM-70 -279q0 -33 48 -58q7 19 42 49q30 25 30 57q0 33 -38 33q-33 0 -57.5 -24t-24.5 -57zM279 -339q218 68 253 227l180 830 q3 15 3 25q0 92 -141 129q7 -26 7 -59q0 -47 -16 -121l-175 -812q-28 -129 -111 -219zM538 1326q0 76 58 133t134 57q64 0 109 -43.5t45 -106.5q0 -77 -58 -132.5t-135 -55.5q-64 0 -108.5 42.5t-44.5 105.5zM613 1326q0 -73 78 -73q46 0 82 33.5t36 79.5q0 32 -23.5 53.5 t-55.5 21.5q-46 0 -81.5 -34.5t-35.5 -80.5z" />
<glyph unicode="&#x214a;" horiz-adv-x="1595" d="M165 362v675q0 26 19.5 45.5t45.5 19.5h435v219q0 65 65 65t65 -65v-219h99q269 0 405 -63q196 -91 196 -328q0 -250 -202 -346q-142 -68 -420 -68h-78v-167h546q65 0 65 -65t-65 -65h-611q-26 0 -45.5 19.5t-19.5 45.5v907h-370v-610q0 -65 -65 -65t-65 65zM795 426h84 q213 0 319 42q167 65 167 243q0 166 -163 225q-98 36 -303 36h-104v-546z" />
<glyph unicode="&#x214b;" horiz-adv-x="1500" d="M89 506v61q116 1 177 49q44 34 111 148q88 151 119 198q70 110 136 186q-145 173 -266 173q-90 0 -151.5 -63.5t-65.5 -153.5h-48q3 117 79 196.5t193 79.5q172 0 340 -146q163 146 349 146q136 0 237 -75q112 -82 112 -214q0 -73 -42 -136q-20 -31 -95 -109 q-95 -98 -176 -187q79 -200 79 -392q0 -121 -69 -211q-75 -98 -193 -98q-87 0 -132 85q-36 68 -36 163q0 130 235 390q-99 258 -319 514q-61 -75 -164 -230q-124 -188 -124 -228q0 -86 137 -85v-61q-87 6 -235 6q-76 0 -188 -6zM749 1196q192 -192 332 -493q91 87 124 143 q46 78 46 183q0 111 -47 193q-56 99 -158 99q-157 0 -297 -125zM796 204q0 -73 23 -128q30 -76 92 -76q76 0 115 78q30 61 30 145q0 154 -58 326q-202 -218 -202 -345z" />
<glyph unicode="&#x214c;" horiz-adv-x="1483" d="M95 1328q0 152 148 152q32 0 94 -14t94 -14q21 0 58.5 15t57.5 15q55 0 55 -74q0 -169 -14 -404q49 6 91 6q32 0 66 -2q-3 63 -3 122q0 210 77 284q59 57 143 57q119 0 237 -102q143 -124 143 -365q0 -80 -49 -203q95 -99 95 -229q0 -146 -127 -239l-30 43q98 74 98 187 q0 93 -74 160q-161 -199 -402 -255q18 -126 18 -209q0 -309 -216 -309q-137 0 -196 66q-55 62 -55 201q0 107 29 253q-285 63 -285 246q0 115 126 192q101 62 258 88q17 134 17 231q0 79 -52 105q-35 18 -122 18q-52 0 -99 -17q-63 -23 -63 -66q0 -40 40 -50q15 -4 73 -4 q18 0 18 -19q0 -58 -85 -58h-3q-161 40 -161 192zM219 679q0 -111 225 -158q24 101 63 305l12 82q-300 -59 -300 -229zM546 194q0 -71 31 -123q37 -61 103 -61q137 0 137 235q0 53 -17 212q-71 -11 -147 -11q-49 0 -101 5q-6 -140 -6 -257zM555 504q53 -5 96 -5q73 0 143 10 q-17 140 -44 419h-26q-68 0 -142 -10zM792 1093q0 -43 2 -90q202 -22 354 -99q2 50 2 113q0 419 -187 419q-116 0 -152 -124q-19 -64 -19 -219zM799 925q15 -208 46 -407q138 29 205 91q76 71 92 209q-146 93 -343 107z" />
<glyph unicode="&#x214d;" horiz-adv-x="2070" d="M52 579v66q138 2 170 81l314 787q14 34 47 34t47 -34l327 -823q15 -38 69 -45q10 -1 89 0v-67q-122 5 -286 5q-85 0 -156 -5v67h25q99 0 99 27q0 18 -79 206h-358q-69 -159 -69 -178q0 -55 115 -55v-66q-145 4 -188 4q-61 0 -166 -4zM388 945h303l-152 382zM596 -291 l1155 1746h89l-1155 -1746h-89zM1322 22q0 32 31 32q36 0 36 -60q0 -90 85 -158t232 -68q78 0 134 50t56 126q0 63 -45 113q-42 47 -150 71l-172 36q-90 29 -146 93q-61 70 -61 160q0 118 96 196q90 72 211 72q133 0 240 -87q62 87 78 87q31 0 31 -34v-287q0 -31 -34 -31 q-22 0 -28.5 25.5t-20.5 79.5q-58 185 -265 185q-74 0 -128 -42q-58 -46 -58 -118q0 -104 126 -148l212 -48q105 -27 168 -98q68 -76 68 -180q0 -124 -92.5 -205.5t-218.5 -81.5q-175 0 -276 86q-64 -86 -81 -86q-28 0 -28 32v288z" />
<glyph unicode="&#x214e;" horiz-adv-x="1003" d="M52 320h63q19 -152 70 -201q54 -53 207 -53h194q33 0 40 4q11 7 11 36v322h-118q-97 0 -125 -33q-24 -28 -24 -121h-62v374h62q0 -94 24 -121q28 -33 125 -33h118v319q0 15 -4 24q-10 22 -190 19v67q71 -5 109 -5h301q30 0 99 5v-67q-117 0 -133 -6q-23 -9 -23 -37v-706 q0 -13 4 -23q9 -22 152 -18v-67h-855z" />
<glyph unicode="&#x214f;" horiz-adv-x="1632" d="M50 122q148 -1 263 85q-65 154 -65 268q0 74 30 130q36 70 103 70q66 0 102 -66q30 -55 30 -126q0 -158 -103 -295q71 -74 171 -74q98 0 178 78q-80 138 -80 279q0 76 29 132q36 72 104 72q63 0 101 -66q31 -54 31 -123q0 -135 -94 -302q60 -70 177 -70q103 0 185 85 q-95 142 -95 278q0 74 32 130q38 68 106 68q64 0 101 -65q30 -54 30 -124q0 -134 -76 -273q118 -89 272 -91l-13 -114q-178 8 -304 131q-110 -137 -226 -137q-125 0 -232 120q-109 -122 -215 -122q-129 0 -231 130q-126 -122 -296 -122zM307 432q0 -108 54 -180 q89 97 89 203q0 102 -66 102q-39 0 -60 -45q-17 -36 -17 -80zM738 434q0 -109 64 -194q79 112 79 216q0 99 -66 99q-39 0 -60 -43q-17 -35 -17 -78zM1178 439q0 -94 81 -178q64 104 64 191q0 103 -68 103q-77 0 -77 -116z" />
<glyph unicode="&#x2150;" horiz-adv-x="1722" d="M133 1372v62q193 0 290 89h12q38 0 38 -45v-786q0 -18 5 -28q11 -22 190 -21v-64q-67 5 -112 5h-302q-45 0 -112 -5v64q16 0 37 -1t30 -1q109 0 123 24q5 9 5 30v708q-80 -31 -204 -31zM267 -251q0 13 6 22l1071 1667q11 17 35 17q40 0 40 -40q0 -13 -6 -22l-1071 -1667 q-11 -17 -35 -17q-40 0 -40 40zM993 322l56 306h56q2 -17 9 -24q20 -20 182 -20h390v-20q0 -26 -16 -46l-212 -262q-73 -91 -97 -253q-14 -94 -14 -276q0 -86 -82 -86t-82 86q0 258 194 527q1 1 161 203h-353q-84 0 -97 -7t-35 -128h-60z" />
<glyph unicode="&#x2151;" horiz-adv-x="1722" d="M133 1372v62q193 0 290 89h12q38 0 38 -45v-786q0 -18 5 -28q11 -22 190 -21v-64q-67 5 -112 5h-302q-45 0 -112 -5v64q16 0 37 -1t30 -1q109 0 123 24q5 9 5 30v708q-80 -31 -204 -31zM287 -251q0 13 6 22l1071 1667q11 17 35 17q40 0 40 -40q0 -13 -6 -22l-1071 -1667 q-11 -17 -35 -17q-40 0 -40 40zM993 292q0 139 103 233q97 89 236 89q78 0 145 -37q184 -101 184 -439q0 -116 -35 -212q-43 -118 -134 -196q-103 -89 -233 -89q-92 0 -153 35q-74 42 -74 124q0 77 81 77q35 0 59 -21t24 -53q0 -60 -66 -72q47 -32 127 -32q55 0 106 30 q132 77 137 352q-67 -108 -185 -108q-141 0 -234 98q-88 93 -88 221zM1154 261q0 -105 26 -153q45 -82 137 -82t141 81q40 66 40 158q0 131 -25 191q-44 104 -141 104q-98 0 -148 -82q-30 -49 -30 -159v-58z" />
<glyph unicode="&#x2152;" horiz-adv-x="2386" d="M133 1372v62q193 0 290 89h12q38 0 38 -45v-786q0 -18 5 -28q11 -22 190 -21v-64q-67 5 -112 5h-302q-45 0 -112 -5v64q16 0 37 -1t30 -1q109 0 123 24q5 9 5 30v708q-80 -31 -204 -31zM267 -251q0 13 6 22l1071 1667q11 17 35 17q40 0 40 -40q0 -13 -6 -22l-1071 -1667 q-11 -17 -35 -17q-40 0 -40 40zM1043 523v62q193 0 290 89h12q38 0 38 -45v-786q0 -18 5 -28q11 -22 190 -21v-64q-67 5 -112 5h-302q-45 0 -112 -5v64q16 0 37 -1t30 -1q109 0 123 24q5 9 5 30v708q-80 -31 -204 -31zM1623 191q0 210 59 317q91 166 280 166q183 0 274 -160 q63 -111 63 -330q0 -210 -59 -317q-91 -166 -280 -166q-183 0 -274 160q-63 111 -63 330zM1770 86q0 -335 190 -335t190 365v173q0 335 -190 335t-190 -365v-173z" />
<glyph unicode="&#x2153;" horiz-adv-x="1722" d="M133 1372v62q193 0 290 89h12q38 0 38 -45v-786q0 -18 5 -28q11 -22 190 -21v-64q-67 5 -112 5h-302q-45 0 -112 -5v64q16 0 37 -1t30 -1q109 0 123 24q5 9 5 30v708q-80 -31 -204 -31zM267 -251q0 13 6 22l1071 1667q11 17 35 17q40 0 40 -40q0 -13 -6 -22l-1071 -1667 q-11 -17 -35 -17q-40 0 -40 40zM987 -132q0 90 97 90q42 0 70 -24.5t28 -62.5q0 -82 -93 -87q74 -85 219 -85q88 0 131 72q35 58 35 147q0 220 -176 220h-81q-35 0 -35 26q0 25 94 30q87 5 130 67t43 153q0 146 -140 146q-123 0 -187 -67q86 -8 86 -79q0 -80 -89 -80 q-90 0 -90 81q0 94 97 150q83 49 190 49q109 0 196 -49q102 -57 102 -152q0 -79 -57 -147q-52 -62 -136 -95q100 -27 164 -92q70 -70 70 -161q0 -120 -107 -201q-100 -76 -235 -76q-121 0 -216 56q-110 65 -110 171z" />
<glyph unicode="&#x2154;" horiz-adv-x="1722" d="M79 580v22q0 26 21 47l300 296q160 158 160 299q0 89 -49 149q-55 67 -150 67q-136 0 -195 -119q98 -2 98 -83q0 -35 -26.5 -59t-64.5 -24q-94 0 -94 87q0 109 92 186q89 75 211 75q142 0 238 -74q102 -79 102 -205q0 -82 -61 -159q-32 -40 -124 -120l-300 -259h285 q97 0 110 9.5t33 125.5h59l-46 -261h-599zM287 -251q0 13 6 22l1071 1667q11 17 35 17q40 0 40 -40q0 -13 -6 -22l-1071 -1667q-11 -17 -35 -17q-40 0 -40 40zM987 -132q0 90 97 90q42 0 70 -24.5t28 -62.5q0 -82 -93 -87q74 -85 219 -85q88 0 131 72q35 58 35 147 q0 220 -176 220h-81q-35 0 -35 26q0 25 94 30q87 5 130 67t43 153q0 146 -140 146q-123 0 -187 -67q86 -8 86 -79q0 -80 -89 -80q-90 0 -90 81q0 94 97 150q83 49 190 49q109 0 196 -49q102 -57 102 -152q0 -79 -57 -147q-52 -62 -136 -95q100 -27 164 -92q70 -70 70 -161 q0 -120 -107 -201q-100 -76 -235 -76q-121 0 -216 56q-110 65 -110 171z" />
<glyph unicode="&#x2155;" horiz-adv-x="1722" d="M133 1372v62q193 0 290 89h12q38 0 38 -45v-786q0 -18 5 -28q11 -22 190 -21v-64q-67 5 -112 5h-302q-45 0 -112 -5v64q16 0 37 -1t30 -1q109 0 123 24q5 9 5 30v708q-80 -31 -204 -31zM267 -251q0 13 6 22l1071 1667q11 17 35 17q40 0 40 -40q0 -13 -6 -22l-1071 -1667 q-11 -17 -35 -17q-40 0 -40 40zM999 -96q0 84 86 84q35 0 62 -21.5t27 -56.5q0 -38 -30.5 -59.5t-68.5 -18.5q26 -60 86 -96.5t128 -36.5q104 0 159 86q35 54 35 185q0 117 -26 169q-42 84 -125 84q-84 0 -153.5 -55.5t-67.5 -55.5q-32 0 -32 38v430q0 33 25 33q9 0 22 -4 q135 -40 206 -40q70 0 215 43q7 2 9 2q25 0 25 -26q0 -14 -30 -44q-109 -110 -281 -110q-60 0 -122 15v-235q80 59 188 59q129 0 217.5 -92t88.5 -221q0 -137 -108 -230q-103 -89 -242 -89q-114 0 -201 73q-92 78 -92 190z" />
<glyph unicode="&#x2156;" horiz-adv-x="1722" d="M79 580v22q0 26 21 47l300 296q160 158 160 299q0 89 -49 149q-55 67 -150 67q-136 0 -195 -119q98 -2 98 -83q0 -35 -26.5 -59t-64.5 -24q-94 0 -94 87q0 109 92 186q89 75 211 75q142 0 238 -74q102 -79 102 -205q0 -82 -61 -159q-32 -40 -124 -120l-300 -259h285 q97 0 110 9.5t33 125.5h59l-46 -261h-599zM277 -251q0 13 6 22l1071 1667q11 17 35 17q40 0 40 -40q0 -13 -6 -22l-1071 -1667q-11 -17 -35 -17q-40 0 -40 40zM999 -96q0 84 86 84q35 0 62 -21.5t27 -56.5q0 -38 -30.5 -59.5t-68.5 -18.5q26 -60 86 -96.5t128 -36.5 q104 0 159 86q35 54 35 185q0 117 -26 169q-42 84 -125 84q-84 0 -153.5 -55.5t-67.5 -55.5q-32 0 -32 38v430q0 33 25 33q9 0 22 -4q135 -40 206 -40q70 0 215 43q7 2 9 2q25 0 25 -26q0 -14 -30 -44q-109 -110 -281 -110q-60 0 -122 15v-235q80 59 188 59q129 0 217.5 -92 t88.5 -221q0 -137 -108 -230q-103 -89 -242 -89q-114 0 -201 73q-92 78 -92 190z" />
<glyph unicode="&#x2157;" horiz-adv-x="1722" d="M67 777q0 90 97 90q42 0 70 -24.5t28 -62.5q0 -82 -93 -87q74 -85 219 -85q88 0 131 72q35 58 35 147q0 220 -176 220h-81q-35 0 -35 26q0 25 94 30q87 5 130 67t43 153q0 146 -140 146q-123 0 -187 -67q86 -8 86 -79q0 -80 -89 -80q-90 0 -90 81q0 94 97 150 q83 49 190 49q109 0 196 -49q102 -57 102 -152q0 -79 -57 -147q-52 -62 -136 -95q100 -27 164 -92q70 -70 70 -161q0 -120 -107 -201q-100 -76 -235 -76q-121 0 -216 56q-110 65 -110 171zM267 -251q0 13 6 22l1071 1667q11 17 35 17q40 0 40 -40q0 -13 -6 -22l-1071 -1667 q-11 -17 -35 -17q-40 0 -40 40zM999 -96q0 84 86 84q35 0 62 -21.5t27 -56.5q0 -38 -30.5 -59.5t-68.5 -18.5q26 -60 86 -96.5t128 -36.5q104 0 159 86q35 54 35 185q0 117 -26 169q-42 84 -125 84q-84 0 -153.5 -55.5t-67.5 -55.5q-32 0 -32 38v430q0 33 25 33q9 0 22 -4 q135 -40 206 -40q70 0 215 43q7 2 9 2q25 0 25 -26q0 -14 -30 -44q-109 -110 -281 -110q-60 0 -122 15v-235q80 59 188 59q129 0 217.5 -92t88.5 -221q0 -137 -108 -230q-103 -89 -242 -89q-114 0 -201 73q-92 78 -92 190z" />
<glyph unicode="&#x2158;" horiz-adv-x="1722" d="M45 809v56l481 653q15 21 40 21q35 0 35 -47v-620h156v-63h-156v-120q0 -18 5 -27q11 -20 147 -19v-64q-78 5 -117 5h-213q-36 0 -114 -5v64l58 -1q76 0 88 20q6 10 6 27v120h-416zM118 872h352v476zM287 -251q0 13 6 22l1071 1667q11 17 35 17q40 0 40 -40q0 -13 -6 -22 l-1071 -1667q-11 -17 -35 -17q-40 0 -40 40zM999 -96q0 84 86 84q35 0 62 -21.5t27 -56.5q0 -38 -30.5 -59.5t-68.5 -18.5q26 -60 86 -96.5t128 -36.5q104 0 159 86q35 54 35 185q0 117 -26 169q-42 84 -125 84q-84 0 -153.5 -55.5t-67.5 -55.5q-32 0 -32 38v430q0 33 25 33 q9 0 22 -4q135 -40 206 -40q70 0 215 43q7 2 9 2q25 0 25 -26q0 -14 -30 -44q-109 -110 -281 -110q-60 0 -122 15v-235q80 59 188 59q129 0 217.5 -92t88.5 -221q0 -137 -108 -230q-103 -89 -242 -89q-114 0 -201 73q-92 78 -92 190z" />
<glyph unicode="&#x2159;" horiz-adv-x="1722" d="M133 1372v62q193 0 290 89h12q38 0 38 -45v-786q0 -18 5 -28q11 -22 190 -21v-64q-67 5 -112 5h-302q-45 0 -112 -5v64q16 0 37 -1t30 -1q109 0 123 24q5 9 5 30v708q-80 -31 -204 -31zM287 -251q0 13 6 22l1071 1667q11 17 35 17q40 0 40 -40q0 -13 -6 -22l-1071 -1667 q-11 -17 -35 -17q-40 0 -40 40zM987 120q0 138 57 254q65 130 188 195q85 45 176 45q87 0 144 -38q65 -42 65 -120t-82 -78t-82 74q0 64 73 71q-42 37 -115 37q-57 0 -111 -30q-146 -82 -152 -354q68 107 184 107q142 0 235 -98q88 -93 88 -221q0 -131 -92 -225 q-95 -98 -240 -98q-187 0 -273 170q-63 124 -63 309zM1150 -6q0 -135 27 -196q44 -99 146 -99q99 0 146 85q26 48 26 144v69q0 102 -28 153q-44 81 -135 81t-141 -80q-41 -66 -41 -157z" />
</font>
</defs>
</svg>
